Ссылка на приватное зеркало всего за 1$. Внимание количество ограничено!!!

iTunes

iTunes

iTunes

1

iTunes

iTunes

iTunes

iTunes

iTunes

30
pack

Новость дня

ВАЖНО

!!Акция!!

Alien_RageХит недели

RePack

Resident Evil 21

ИГРА 18+

pack

RePack

jed

!!Акция!!

Alien_Rage

RePack

fifa19

RePack

Assassins Creed: Odyssey

RePack

NEED FOR SPEED™ PAYBACK

4 сезон

9 сезон

Бесстыжие 9 сезон

Все сериалы

все сериалы на PB.wtf

RePack

FAR CRY 5
  

Батальонъ (Дмитрий Месхиев) [2015, Россия, драма, военный, история, WEB-DLRip) [Лицензия / iTunes] pb.wtf

Батальонъ через торрент pb.wtf

Размер: 1.37 GB | Добавлен: 4 года 10 мес. назад | Торрент скачан:2237 раз
Скачать  

10-07-2015 01:43 Батальонъ Скачать торрент  

Батальонъ
«Первый. Женский. Бессмертный»

  • Год выпуска: 2015
  • Страна: Россия
  • Жанр: драма, военный, история
  • Продолжительность: 02:03:45
  • Перевод: [Лицензия / iTunes]

  • Режиссер: Дмитрий Месхиев
  • В ролях:

    Мария Аронова (Мария Бочкарева, командир «Батальона смерти»), Мария Кожевникова (Татищева), Ирина Рахманова (Фроська), Марат Башаров (Александр Керенский), Янина Малинчик (Дуся), Евгений Дятлов (Цепляев), Алёна Кучкова (Надя), Валерия Шкирандо (Вера), Николай Аузин (поручик Селезнев), Владимир Зайцев (Брусилов), Мила Макарова (Тоня), Мария Антонова (Дюймовочка)

  • Описание:
    Весна 1917-го года. Февральская революция изменила жизнь России и ход Великой войны. Государь уже отрёкся от престола. В окопах, где противостояние с немцами длится уже не один год, вовсю ведут свою пропаганду большевики. Они призывают к миру с неприятелем. Российское офицерство фактически ничего не может решить без одобрения так называемых солдатских комитетов. Армия находится на пороге окончательного разложения.
    По приказу Временного правительства для поднятия боевого духа создаётся женский «Батальон смерти» под командованием георгиевского кавалера Марии Бочкарёвой. Своей службой «Батальон смерти» подаёт пример храбрости, мужества и спокойствия, поднимает дух солдат и доказывает, что каждая из этих женщин-героев достойна звания воина русской армии.
  • Рейтинг:



  • Качество: WEB-DLRip
  • Формат: :AVI
  • Видео кодек: XviD
  • Аудио кодек: AC3
  • Видео: 720x304 (2.35:1), 1190 kbps, 25 fps, 0,218 bpp
  • Аудио: 5.1 / 48 kHz / 384 kbps / 16 bit
  • Релиз от: GEKADOL

    Код:

    General
    Complete name                            : F:\Batalion.2015.O.WEB-DLRip.1400MB.avi
    Format                                   : AVI
    Format/Info                              : Audio Video Interleave
    File size                                : 1.37 GiB
    Duration                                 : 2h 3mn
    Overall bit rate                         : 1 584 Kbps
    Writing application                      : VirtualDubMod 1.5.10.2 (build 2540/release)
    Writing library                          : VirtualDubMod build 2540/release

    Video
    ID                                       : 0
    Format                                   : MPEG-4 Visual
    Format profile                           : Advanced Simple@L5
    Format settings, BVOP                    : 2
    Format settings, QPel                    : No
    Format settings, GMC                     : No warppoints
    Format settings, Matrix                  : Default (MPEG)
    Codec ID                                 : XVID
    Codec ID/Hint                            : XviD
    Duration                                 : 2h 3mn
    Bit rate                                 : 1 191 Kbps
    Width                                    : 720 pixels
    Height                                   : 304 pixels
    Display aspect ratio                     : 2.35:1
    Frame rate                               : 25.000 fps
    Color space                              : YUV
    Chroma subsampling                       : 4:2:0
    Bit depth                                : 8 bits
    Scan type                                : Progressive
    Compression mode                         : Lossy
    Bits/(Pixel*Frame)                       : 0.218
    Stream size                              : 1.03 GiB (75%)
    Writing library                          : XviD 1.2.1 (UTC 2008-12-04)

    Audio
    ID                                       : 1
    Format                                   : AC-3
    Format/Info                              : Audio Coding 3
    Mode extension                           : CM (complete main)
    Codec ID                                 : 2000
    Duration                                 : 2h 3mn
    Bit rate mode                            : Constant
    Bit rate                                 : 384 Kbps
    Channel(s)                               : 6 channels
    Channel positions                        : Front: L C R, Side: L R, LFE
    Sampling rate                            : 48.0 KHz
    Bit depth                                : 16 bits
    Compression mode                         : Lossy
    Stream size                              : 340 MiB (24%)
    Alignment                                : Split accross interleaves
    Interleave, duration                     : 40 ms (1.00 video frame)
    Interleave, preload duration             : 500 ms




    Скриншоты:



    pb.wtf



  • Скачать Батальонъ через торрент http://pic1.kartinco.top/images/10/3ytb2.jpg Скачать фильм Батальонъ через торрент бесплантно в хорошем качестве Описание: Весна 1917-го года. Февральская революция изменила жизнь России и ход Великой войны. Государь уже отрёкся от престола. В окопах, ... 9.3 10 49
    Info! Золотая раздача, скачанное не засчитывается.
    Торрент: Зарегистрирован [2015-07-10 01:43] · скачан: 2 237 раз
    Статус: √ проверено
    Размер: 1.37 GB
    Как cкачать? Как скачать Батальонъ через торрент | qTorrent

    % Раздел Тема Автор DL S | L
    Наши фильмы (Blu-ray, BD-Remux, HDDVD) [ 19.96 GB ] Батальонъ [2015 военный исторический BD-Remux Оригинал ] Бумер Скачать
    1 | 0
    Наши сериалы [ 2.43 GB ] Батальонъ / Серии: 1-4 из 4 [2014 военный фильм исторический фильм SATRip-AVC] aleksan55 Скачать
    1 | 0
    Наши фильмы (DVD фильмы) [ 6.7 GB ] Батальонъ [2015 военный история DVD9] R5 voovaz Скачать
    1 | 0
    Наши новые фильмы 2015 [ 2.18 GB ] Батальонъ [2015 военный история WEB-DLRip-AVC ] Ворон Скачать
    1 | 0
    Наши фильмы (HD, WEB-DL 720p, 1080p) [ 4.37 GB ] Батальонъ [2014 военный история BDRip 720p] [] potroks Скачать
    1 | 0
    Наши новые фильмы 2014 [ 1.46 GB ] Батальонъ [2014 военный история BDRip-AVC] [] potroks Скачать
    1 | 0
    Наши новые фильмы 2015 [ 1.46 GB ] Батальонъ [2015 военный исторический BDRip Оригинал ] Twi7ter Скачать
    1 | 0

    28-11-2019 20:33  

    Отключить всю рекламу на сайте

    10-07-2015 08:02 Батальонъ Скачать торрент  

    не прошло и пол года думал и правда на 8-ое марта выпустят лицензиюpb.wtf



    10-07-2015 18:07 Батальонъ Скачать торрент  

    Походу достойный фильм. Посмотрим.pb.wtf



    12-07-2015 01:41 Батальонъ Скачать торрент  

    бредpb.wtf



    19-08-2015 17:47 Батальонъ Скачать торрент  

    Дождались, приятный думаю будет вечер.pb.wtf



      Дорогой пользователь! Огромная просьба, поблагодарите релизера, оцените раздачу и оставьте свои комментарий, если Вы скачали Батальонъ через торрент бесплатно! Внесите свою лепту в развитие PiratBit!
      Комментировать посты могут только пользователи прошедшие не сложную регистрацию
      Показать сообщения:    

      Батальонъ через торрент
      Скачать бесплатно Батальонъ
      Батальонъ скачать торрент
      Батальонъ смотреть онлайн
      Cкачать фильм Батальонъ бесплатно
      Батальонъ скачать торрент в хорошем качестве
      Батальонъ смотреть онлайн бесплатно в хорошем качестве


      Вы не можете начинать темы
      Вы не можете отвечать на сообщения
      Вы не можете редактировать свои сообщения
      Вы не можете удалять свои сообщения
      Вы не можете голосовать в опросах
      Вы не можете прикреплять файлы к сообщениям
      Вы можете скачивать файлы