новый адрес
Мега распродажа FORZA HORIZON 4 ULTIMATE+ВСЕ DLC+ОНЛАЙН всего за 499р. 349 руб. (супер цена). Внимание количество ограничено!!!

iTunes

1+1

iTunes

мы

iTunes

1

iTunes

Чернобыль

iTunes

Ральф против интернета

Лицензия

ПШазам

Лицензия

Оно 2

Лицензия

30
pack

ВАЖНО

!!Акция!!

Alien_RageХит недели

RePack

Resident Evil 21

ИГРА 18+

pack

RePack

jed

!!Акция!!

Alien_Rage

RePack

fifa19

RePack

Assassins Creed: Odyssey

RePack

NEED FOR SPEED™ PAYBACK

3 сезон

9 сезон

Бесстыжие 9 сезон

Все сериалы

все сериалы на PB.wtf

RePack

FAR CRY 5
Ребята, катастрофически не хватает 1900р. для оплаты серверов за Октябрь (всвязи с блокировками трафик упал в 3 раза), 1-2р., выручайте.
  

Вариант "Омега"(1-5 серия из 5) (Антонис-Янис Воязос) [1975, Военный,приключения, DVDRip-AVC] pb.wtf

Вариант "Омега" через торрент pb.wtf

Размер: 4.3 GB | Добавлен: 4 года 4 мес. назад | Торрент скачан:69 раз
Скачать  

10-07-2015 12:41 Вариант "Омега" Скачать торрент  


Вариант "Омега"

Год выпуска: 1975
Выпущено: СССР, ТО Экран
Жанр: Военный,приключения
Продолжительность: 01:11:10 + 01:09:01 + 01:11:56 + 01:15:43 + 01:08:51
Субтитры: нет

Режиссер: Антонис-Янис Воязос

В ролях: Олег Даль, Игорь Васильев, Елена Прудникова, Ирина Печерникова, Евгений Евстигнеев, Вадим Яковлев, Сергей Полежаев, Пауль Кальде, Александр Калягин, Алексей Эйбоженко, Фёдор Никитин, Виталий Коняев, Людмила Иванова, Рейно Арен, Эйнари Коппель, Игорь Кан, Александр Липов, Валерий Лысенков, Дмитрий Орловский

Описание: В основе фильма - документальный материал о действиях советской разведки в оккупированном гитлеровцами Таллинне. Весна 1942 года. В городе появляется немецкий разведчик фон Шлоссер. Его задание - продвижение стратегической дезинформации в советскую Ставку. Шлоссер рассчитывает сделать пешкой в своей игре советского разведчика Скорина, который приезжает в Таллинн под видом немецкого офицера Пауля Кригера. Чтобы ускорить выполнение задания советского командования, Скорин-Кригер идет на вариант "Омега" - провоцирует свой арест.






Качество: DVDRip-AVC
Формат: MKV
Видео кодек: H.264
Аудио кодек: AC3
Видео: MPEG-4 AVC, 720х544,25fps,1590 Кбит/сек,Bits/Pixel 0.140
Аудио: AC3, 48 kHz, ~192 Kbps, 6 каналов

Общее
Уникальный идентификатор : 206320736187117031551470478572865279067 (0x9B37EDAB6E5316F5A425E3583CAD545B)
Полное имя : D:\Вариант Омега\02 серия.mkv
Формат : Matroska
Версия формата : Version 2
Размер файла : 785 Мбайт
Продолжительность : 1 ч. 8 м.
Общий поток : 1590 Кбит/сек
Дата кодирования : UTC 2015-07-07 05:55:27
Программа кодирования : mkvmerge v6.1.0 ('Old Devil') built on Mar 4 2013 09:10:42
Библиотека кодирования : libebml v1.3.0 + libmatroska v1.4.0

Видео
Идентификатор : 1
Формат : AVC
Формат/Информация : Advanced Video Codec
Профиль формата : High@L4.1
Параметр CABAC формата : Да
Параметр ReFrames формата : 9 кадров
Идентификатор кодека : V_MPEG4/ISO/AVC
Продолжительность : 1 ч. 8 м.
Битрейт : 1367 Кбит/сек
Ширина : 720 пикселей
Высота : 544 пикселя
Соотношение сторон : 4:3
Режим частоты кадров : Постоянный
Частота кадров : 25,000 кадров/сек
Цветовое пространство : YUV
Субдискретизация насыщенности : 4:2:0
Битовая глубина : 8 бит
Тип развёртки : Прогрессивная
Бит/(Пиксели*Кадры) : 0.140
Размер потока : 675 Мбайт (86%)
Библиотека кодирования : x264 core 130 r2273 b3065e6
Настройки программы : cabac=1 / ref=9 / deblock=1:-3:-3 / analyse=0x3:0x133 / me=umh / subme=9 / psy=1 / psy_rd=1.00:0.00 / mixed_ref=1 / me_range=24 / chroma_me=1 / trellis=2 / 8x8dct=1 / cqm=0 / deadzone=21,11 / fast_pskip=0 / chroma_qp_offset=-2 / threads=2 / lookahead_threads=4 / sliced_threads=0 / nr=0 / decimate=1 / interlaced=0 / bluray_compat=0 / constrained_intra=0 / bframes=9 / b_pyramid=2 / b_adapt=2 / b_bias=0 / direct=1 / weightb=1 / open_gop=0 / weightp=2 / keyint=250 / keyint_min=25 / scenecut=40 / intra_refresh=0 / rc_lookahead=60 / rc=crf / mbtree=1 / crf=18.0 / qcomp=0.60 / qpmin=0 / qpmax=69 / qpstep=4 / ip_ratio=1.40 / aq=1:1.00
Default : Да
Forced : Нет
Цветовой диапазон : Limited
Основные цвета : BT.601 PAL
Характеристики трансфера : BT.470 System B, BT.470 System G
Коэффициенты матрицы : BT.601

Аудио
Идентификатор : 2
Формат : AC-3
Формат/Информация : Audio Coding 3
Расширение режима : CM (complete main)
Параметр Endianness формата : Big
Идентификатор кодека : A_AC3
Продолжительность : 1 ч. 8 м.
Вид битрейта : Постоянный
Битрейт : 192 Кбит/сек
Каналы : 6 каналов
Расположение каналов : Front: L C R, Side: L R, LFE
Частота : 48,0 КГц
Метод сжатия : С потерями
Размер потока : 94,8 Мбайт (12%)
Default : Да
Forced : Нет


pb.wtf



Скачать Вариант "Омега" через торрент http://i72.fastpic.ru/big/2015/0710/20/560defa092065df8ea37c9aa0cf91d20.jpg Скачать фильм Вариант "Омега"через торрент бесплантно в хорошем качестве Описание: В основе фильма - документальный материал о действиях советской разведки в оккупированном гитлеровцами Таллинне. Весна 1942 года. ... 9.9 10 7
Info! Золотая раздача, скачанное не засчитывается.
Торрент: Зарегистрирован [2015-07-10 12:41] · скачан: 69 раз
Статус: √ проверено
Размер: 4.3 GB
Как cкачать? Как скачать Вариант "Омега" через торрент | qTorrent


>> Регистрируемся здесь <<






Отзывы и комментарии о схеме читаем и пишем здесь: ---> Отзывы и комментарии о схеме

Новые благодарочки в телеграм довольных пользователей:
скриншот   скриншот   скриншот   скриншот   скриншот
    Дорогой пользователь! Огромная просьба, поблагодарите релизера, оцените раздачу и оставьте свои комментарий, если Вы скачали Вариант "Омега" через торрент бесплатно! Внесите свою лепту в развитие PiratBit!
    Комментировать посты могут только пользователи прошедшие не сложную регистрацию
    Показать сообщения:    

    Вариант "Омега" через торрент
    Скачать бесплатно Вариант "Омега"
    Вариант "Омега" скачать торрент
    Вариант "Омега" смотреть онлайн
    Cкачать фильм Вариант "Омега" бесплатно
    Вариант "Омега" скачать торрент в хорошем качестве
    Вариант "Омега" смотреть онлайн бесплатно в хорошем качестве


    Вы не можете начинать темы
    Вы не можете отвечать на сообщения
    Вы не можете редактировать свои сообщения
    Вы не можете удалять свои сообщения
    Вы не можете голосовать в опросах
    Вы не можете прикреплять файлы к сообщениям
    Вы можете скачивать файлы