Ссылка на приватное зеркало нашего сайта всего за 1$. Внимание количество ограничено!!!

2 сезон

iTunes

1 сезон

1

2 сезон

2 сезон

iTunes

1 сезон

RePack

30

Ultimate

ВАЖНО

ИГРА 18+

pack

RePack

MK11
pack

Забери бонус

RePack

jed

!!Акция!!

Alien_Rage

RePack

fifa19

RePack

Assassins Creed: Odyssey

RePack

NEED FOR SPEED™ PAYBACK

4 сезон

9 сезон

Бесстыжие 9 сезон

Все сериалы

все сериалы на PB.wtf

RePack

FAR CRY 5
  

Доминион / Dominion / Сезон: 2 / Серии 1-13 из 13 (Алекс Холмс / Alex Holmes, Рик Джейкобсон / Rick Jacobson, Ларри Шоу / Larry Shaw) [2015, США, ужасы, фантастика, фэнтези, WEB-DL 1080p] MVO [NewStudio] pb.wtf

Доминион через торрент pb.wtf

Размер: 22.31 GB | Добавлен: 5 лет 1 мес. назад | Торрент скачан:49 раз
Скачать  

11-07-2015 03:15 Доминион Скачать торрент  

Доминион / Dominion
«Небеса устроят Ад на Земле»


  • Год выпуска: 2015
  • Страна: США
  • Жанр: ужасы, фантастика, фэнтези, боевик, драма
  • Продолжительность: 00:42:24 (Серия)
  • Перевод: Профессиональный многоголосый закадровый [NewStudio]
  • Субтитры: русские (Forced)
  • Режиссер: Алекс Холмс / Alex Holmes, Рик Джейкобсон / Rick Jacobson, Ларри Шоу / Larry Shaw
  • В ролях:

    Кристофер Иган (Alex Lannen), Том Уисдом (Michael), Роксанна МакКи (Claire Riesen), Алан Дэйл (General Edward Riesen), Энтони Хэд (David Whele), Шивани Гаи (Arika), Карл Бьюкс (Gabriel), Ким Энгельбрехт (Sgt. Noma Walker), Люк Аллен-Гейл (William Whele), Розалинд Халстэд (Senator Becca Thorn), Джонатан Ховард (Ethan), Тайрон Кеог (Lt. Vince)

  • Описание:
    История опасного путешествия молодого непокорного солдата, который неожиданно для себя обнаружил, что он спаситель человечества...
  • Рейтинг:



  • Качество: WEB-DL 1080p
  • Формат: :MKV
  • Видео кодек: AVC
  • Аудио кодек: AC3
  • Видео: 1920x1080 (16:9), 4940 kbps, 23,976 fps, 0,099 bpp
  • Аудио №1: русский / 5.1 / 48 kHz / 384 kbps / 16 bit |[NewStudio]|
  • Аудио №2: английский / 5.1 / 48 kHz / 384 kbps / 16 bit
  • Релиз от: GEKADOL

    Код:

    Внимание! Раздача ведётся путём добавления новых серий; при каждом добавлении создаётся новый торрент. Чтобы начать докачку новой серии, пользователям необходимо сделать следующее:
    (1) остановить скачивание,
    (2) удалить старый торрент у себя из клиента (старые серии удалять не надо),
    (3) скачать новый торрент и запустить его у себя в клиенте вместо старого, при этом указать клиенту путь в старую папку куда и должно происходить скачивание новых серий.
    Ваш клиент при этом должен произвести хеширование (проверку) старой папки (если не производит сам - помогите ему сделать это), и будет докачивать только те серии которых у вас ещё нет. Старые серии при этом не удаляются, а продолжают раздаваться!
    Eсли вы уже удалили старые серии, то предотвратить повторную закачку старых серий можно, отжав галочку в соответствующих местах при запуске нового торрента. По возможности, желательно не удалять старые серии как можно дольше чтобы релизёр не столько продолжал раздавать старые серии, а смог сконцентрироваться на новых.


    Код:

    General
    Unique ID                                : 227424763198438026500161970288591660951 (0xAB186A890FF33B71BD83A6B3BD3C6797)
    Complete name                            : F:\Dominion.s02e01.1080p.WEBDL.NewStudio.TV.mkv
    Format                                   : Matroska
    Format version                           : Version 4 / Version 2
    File size                                : 1.73 GiB
    Duration                                 : 42mn 24s
    Overall bit rate                         : 5 824 Kbps
    Encoded date                             : UTC 2015-07-10 21:29:19
    Writing application                      : mkvmerge v8.1.0 ('Psychedelic Postcard') 32bit
    Writing library                          : libebml v1.3.1 + libmatroska v1.4.2
    DURATION                                 : 00:42:24.928000000
    NUMBER_OF_FRAMES                         : 79529
    NUMBER_OF_BYTES                          : 122156544
    _STATISTICS_WRITING_APP                  : mkvmerge v8.1.0 ('Psychedelic Postcard') 32bit
    _STATISTICS_WRITING_DATE_UTC             : 2015-07-10 21:29:19
    _STATISTICS_TAGS                         : BPS DURATION NUMBER_OF_FRAMES NUMBER_OF_BYTES

    Video
    ID                                       : 1
    Format                                   : AVC
    Format/Info                              : Advanced Video Codec
    Format profile                           : High@L4.0
    Format settings, CABAC                   : Yes
    Format settings, ReFrames                : 4 frames
    Codec ID                                 : V_MPEG4/ISO/AVC
    Duration                                 : 42mn 24s
    Bit rate                                 : 4 940 Kbps
    Width                                    : 1 920 pixels
    Height                                   : 1 080 pixels
    Display aspect ratio                     : 16:9
    Frame rate                               : 23.976 fps
    Color space                              : YUV
    Chroma subsampling                       : 4:2:0
    Bit depth                                : 8 bits
    Scan type                                : Progressive
    Bits/(Pixel*Frame)                       : 0.099
    Stream size                              : 1.46 GiB (85%)
    Language                                 : English
    Default                                  : Yes
    Forced                                   : No
    Color primaries                          : BT.709-5, BT.1361, IEC 61966-2-4, SMPTE RP177
    Transfer characteristics                 : BT.709-5, BT.1361
    Matrix coefficients                      : BT.709-5, BT.1361, IEC 61966-2-4 709, SMPTE RP177

    Audio #1
    ID                                       : 2
    Format                                   : AC-3
    Format/Info                              : Audio Coding 3
    Mode extension                           : CM (complete main)
    Codec ID                                 : A_AC3
    Duration                                 : 42mn 24s
    Bit rate mode                            : Constant
    Bit rate                                 : 384 Kbps
    Channel(s)                               : 6 channels
    Channel positions                        : Front: L C R, Side: L R, LFE
    Sampling rate                            : 48.0 KHz
    Bit depth                                : 16 bits
    Compression mode                         : Lossy
    Stream size                              : 116 MiB (7%)
    Title                                    : NewStudio.TV
    Language                                 : Russian
    Default                                  : Yes
    Forced                                   : No

    Audio #2
    ID                                       : 3
    Format                                   : AC-3
    Format/Info                              : Audio Coding 3
    Mode extension                           : CM (complete main)
    Codec ID                                 : A_AC3
    Duration                                 : 42mn 24s
    Bit rate mode                            : Constant
    Bit rate                                 : 384 Kbps
    Channel(s)                               : 6 channels
    Channel positions                        : Front: L C R, Side: L R, LFE
    Sampling rate                            : 48.0 KHz
    Bit depth                                : 16 bits
    Compression mode                         : Lossy
    Stream size                              : 116 MiB (7%)
    Language                                 : English
    Default                                  : No
    Forced                                   : No

    Text
    ID                                       : 4
    Format                                   : ASS
    Codec ID                                 : S_TEXT/ASS
    Codec ID/Info                            : Advanced Sub Station Alpha
    Compression mode                         : Lossless
    Title                                    : Forced
    Language                                 : Russian
    Default                                  : Yes
    Forced                                   : No




    Скриншоты:
    скриншот   скриншот   скриншот   скриншот   скриншот  
    скриншот  

    Раздача ведётся путём добавления новых серий. Добавлена 13 серия (04.10.2015).Просьба перекачать торрент файл.

    pb.wtf



  • Скачать Доминион через торрент http://pic1.kartinco.top/images/10/75t83.jpg Скачать фильм Доминион через торрент бесплантно в хорошем качестве Описание: История опасного путешествия молодого непокорного солдата, который неожиданно для себя обнаружил, что он спаситель ... 9.5 10 17
    Info! Золотая раздача, скачанное не засчитывается.
    Торрент: Зарегистрирован [2015-10-04 01:46] · скачан: 49 раз
    Статус: √ проверено
    Размер: 22.31 GB
    Как cкачать? Как скачать Доминион через торрент | qTorrent

    % Раздел Тема Автор DL S | L
    Зарубежные сериалы [ 6.99 GB ] Доминион / Dominion / 2 сезон / Серии 1-13 из 13 [2015 WEB-DLRip] MVO [LostFilm] bober100 Скачать
    1 | 0
    Зарубежные сериалы [ 6.98 GB ] Доминион / Dominion / Сезон: 2 / Серии 1-13 из 13 [2015 WEB-DLRip] MVO [NewStudio] GEKADOL Скачать
    1 | 0

    28-11-2019 20:33  

    Отключить всю рекламу на сайте

      Дорогой пользователь! Огромная просьба, поблагодарите релизера, оцените раздачу и оставьте свои комментарий, если Вы скачали Доминион через торрент бесплатно! Внесите свою лепту в развитие PiratBit!
      Комментировать посты могут только пользователи прошедшие не сложную регистрацию
      Показать сообщения:    

      Доминион через торрент
      Скачать бесплатно Доминион
      Доминион скачать торрент
      Доминион смотреть онлайн
      Cкачать фильм Доминион бесплатно
      Доминион скачать торрент в хорошем качестве
      Доминион смотреть онлайн бесплатно в хорошем качестве


      Вы не можете начинать темы
      Вы не можете отвечать на сообщения
      Вы не можете редактировать свои сообщения
      Вы не можете удалять свои сообщения
      Вы не можете голосовать в опросах
      Вы не можете прикреплять файлы к сообщениям
      Вы можете скачивать файлы