Ссылка на приватное зеркало нашего сайта всего за 1$. Внимание количество ограничено!!!

2 сезон

iTunes

1 сезон

1

2 сезон

2 сезон

iTunes

1 сезон

RePack

30

Новинка

ВАЖНО

ИГРА 18+

pack

RePack

MK11
pack

Забери бонус

RePack

jed

!!Акция!!

Alien_Rage

RePack

fifa19

RePack

Assassins Creed: Odyssey

RePack

NEED FOR SPEED™ PAYBACK

4 сезон

9 сезон

Бесстыжие 9 сезон

Все сериалы

все сериалы на PB.wtf

RePack

FAR CRY 5
  

Что останется после тебя? / What Remains / Серии 1-4 из 4 (Коки Гидройч / Coky Giedroyc) [2013, Великобритания, драма, детектив, WEB-DL 1080p] MVO [Agatha Studdio] pb.wtf

Что останется после тебя? через торрент pb.wtf

Размер: 16.75 GB | Добавлен: 5 лет 4 мес. назад | Торрент скачан:71 раз
Скачать  

11-07-2015 04:47 Что останется после тебя? Скачать торрент  

Что останется после тебя? / What Remains


  • Год выпуска: 2013
  • Страна: Великобритания
  • Жанр: драма, детектив
  • Продолжительность: 00:59:15
  • Перевод: Профессиональный многоголосый закадровый [Agatha Studdio]

  • Режиссер: Коки Гидройч / Coky Giedroyc
  • В ролях:

    Дэвид Трелфолл (Len Harper), Денис Гоф (Liz Fletcher), Лиза Миллетт (DCI Alice Yapp), Александр Арнольд (Adam), Дэвид Бамбер (Joe), Клоди Блейкли (Patricia), Джессика Ганнинг (Melissa Young), Виктория Хэмилтон (Peggy), Стивен Макинтош (Kieron), Эмбер Роуз Рева (Vidya), Рассел Тови (Michael), Индира Варма (Elaine)

  • Описание:
    После того как разложившееся тело Мелиссы Янг было найдено двумя новосёлами в доме, где она жила, детектив Лен Харпер приступает к расследованию того, что с ней произошло, и почему больше двух лет никто не замечал её исчезновения. Какие тайны хранят соседи пятиквартирного дома?
    По мотивам реальных событий, потрясших Великобританию. Тело девушки по имени Джойс (Joyce Carol Vincent) было найдено спустя почти три года. Под дверью была гора почты, в квартире телевизор по-прежнему показывал канал BBC. Об этой истории был снят документальный фильм "Dreams Of A Life".
  • Рейтинг:



  • Качество: WEB-DL 1080p
  • Формат: :MKV
  • Видео кодек: AVC
  • Аудио кодек: AC3
  • Видео: 1920x1080 (16:9), 9419 kbps, 25 fps, 0,182 bpp
  • Аудио №1: русский / 2.0 / 48 kHz / 192 kbps / 16 bit |Agatha Studdio|
  • Аудио №2: английский / 2.0 / 48 kHz / 192 kbps / 16 bit
  • Релиз от: GEKADOL

    Код:

    General
    Unique ID                                : 52682339651152557285389264790333909670 (0x27A23FE2578707D855B11CDABBDF6AA6)
    Complete name                            : F:\What.Remains.S01.WEB-DL.1080p.AlexFilm\What.Remains.S01E04.WEB-DL.1080p.AlexFilm.mkv
    Format                                   : Matroska
    Format version                           : Version 4 / Version 2
    File size                                : 4.14 GiB
    Duration                                 : 59mn 15s
    Overall bit rate mode                    : Constant
    Overall bit rate                         : 10.0 Mbps
    Encoded date                             : UTC 2015-07-10 11:26:38
    Writing application                      : mkvmerge v8.1.0 ('Psychedelic Postcard') 64bit
    Writing library                          : libebml v1.3.1 + libmatroska v1.4.2

    Video
    ID                                       : 1
    Format                                   : AVC
    Format/Info                              : Advanced Video Codec
    Format profile                           : High@L4.0
    Format settings, CABAC                   : Yes
    Format settings, ReFrames                : 4 frames
    Codec ID                                 : V_MPEG4/ISO/AVC
    Duration                                 : 59mn 15s
    Bit rate mode                            : Constant
    Bit rate                                 : 9 419 Kbps
    Nominal bit rate                         : 10 000 Kbps
    Width                                    : 1 920 pixels
    Height                                   : 1 080 pixels
    Display aspect ratio                     : 16:9
    Frame rate                               : 25.000 fps
    Standard                                 : PAL
    Color space                              : YUV
    Chroma subsampling                       : 4:2:0
    Bit depth                                : 8 bits
    Scan type                                : Progressive
    Bits/(Pixel*Frame)                       : 0.182
    Stream size                              : 3.90 GiB (94%)
    Language                                 : English
    Default                                  : Yes
    Forced                                   : No
    Color primaries                          : BT.709-5, BT.1361, IEC 61966-2-4, SMPTE RP177
    Transfer characteristics                 : BT.709-5, BT.1361
    Matrix coefficients                      : BT.709-5, BT.1361, IEC 61966-2-4 709, SMPTE RP177

    Audio #1
    ID                                       : 2
    Format                                   : AC-3
    Format/Info                              : Audio Coding 3
    Mode extension                           : CM (complete main)
    Codec ID                                 : A_AC3
    Duration                                 : 59mn 15s
    Bit rate mode                            : Constant
    Bit rate                                 : 192 Kbps
    Channel(s)                               : 2 channels
    Channel positions                        : Front: L R
    Sampling rate                            : 48.0 KHz
    Bit depth                                : 16 bits
    Compression mode                         : Lossy
    Stream size                              : 81.4 MiB (2%)
    Language                                 : Russian
    Default                                  : Yes
    Forced                                   : No

    Audio #2
    ID                                       : 3
    Format                                   : AC-3
    Format/Info                              : Audio Coding 3
    Mode extension                           : CM (complete main)
    Codec ID                                 : A_AC3
    Duration                                 : 59mn 15s
    Bit rate mode                            : Constant
    Bit rate                                 : 192 Kbps
    Channel(s)                               : 2 channels
    Channel positions                        : Front: L R
    Sampling rate                            : 48.0 KHz
    Bit depth                                : 16 bits
    Compression mode                         : Lossy
    Stream size                              : 81.4 MiB (2%)
    Language                                 : English
    Default                                  : No
    Forced                                   : No




    Скриншоты:



    pb.wtf



  • Скачать Что останется после тебя? через торрент http://pic1.kartinco.top/images/10/xwv1s.jpg Скачать фильм Что останется после тебя? через торрент бесплантно в хорошем качестве Описание: После того как разложившееся тело Мелиссы Янг было найдено двумя новосёлами в доме, где она жила, детектив Лен Харпер приступает ... 7.8 10 4
    Info! Золотая раздача, скачанное не засчитывается.
    Торрент: Зарегистрирован [2015-07-11 04:47] · скачан: 71 раз
    Статус: √ проверено
    Размер: 16.75 GB
    Как cкачать? Как скачать Что останется после тебя? через торрент | qTorrent

    28-11-2019 20:33  

    Отключить всю рекламу на сайте

    11-07-2015 06:32 Что останется после тебя? Скачать торрент  

    Отличный сериал, хоть и нет особой динамики, но концовка может удивить расслабившегося было зрителя.pb.wtf



    11-07-2015 14:11 Что останется после тебя? Скачать торрент  

    bakerman писал(а):

    Отличный сериал, хоть и нет особой динамики, но концовка может удивить расслабившегося было зрителя.

    Согласен! Спасибо за комментарий!pb.wtf



      Дорогой пользователь! Огромная просьба, поблагодарите релизера, оцените раздачу и оставьте свои комментарий, если Вы скачали Что останется после тебя? через торрент бесплатно! Внесите свою лепту в развитие PiratBit!
      Комментировать посты могут только пользователи прошедшие не сложную регистрацию
      Показать сообщения:    

      Что останется после тебя? через торрент
      Скачать бесплатно Что останется после тебя?
      Что останется после тебя? скачать торрент
      Что останется после тебя? смотреть онлайн
      Cкачать фильм Что останется после тебя? бесплатно
      Что останется после тебя? скачать торрент в хорошем качестве
      Что останется после тебя? смотреть онлайн бесплатно в хорошем качестве


      Вы не можете начинать темы
      Вы не можете отвечать на сообщения
      Вы не можете редактировать свои сообщения
      Вы не можете удалять свои сообщения
      Вы не можете голосовать в опросах
      Вы не можете прикреплять файлы к сообщениям
      Вы можете скачивать файлы