2 сезон

iTunes

MVO

1

2 сезон

iTunes

iTunes

1 сезон

RePack

30

Новинка

ВАЖНО

ИГРА 18+

pack

RePack

MK11
pack

Легкие деньги

RePack

jed

RePack

fifa19

RePack

RDR2

RePack

NEED FOR SPEED™ PAYBACK

4 сезон

9 сезон

Бесстыжие 9 сезон

Все сериалы

все сериалы на PB.wtf

RePack

FAR CRY 5

Anonymous, добрый вечер, мы не успеваем собрать деньги на оплату серверов за декабрь и январь, помогите нам пожалуйста в это трудное время. В качестве благодарности мы отключим Вам всю рекламу на сайте (укажите свой ник в строку Ваше имя)!

×
  
Magnet ссылка

Последняя девушка / Final Girl (Тайлер Шилдс / Tyler Shields) [2015, Канада, США, боевик, триллер, драма, HDRip от ExKinoRay] VO pb.wtf

Последняя девушка через торрент pb.wtf

Размер: 1.47 GB | Добавлен: 5 лет 6 мес. назад | Торрент скачан:395 раз
Скачать  

11-07-2015 05:49 Последняя девушка Скачать торрент  


Последняя девушка / Final Girl



ИНФОРМАЦИЯ:
Год выпуска:2015
Страна: Канада, США
Жанр: боевик, триллер, драма
Продолжительность: 01:24:12
Перевод: Любительский (одноголосый) [Xixidok]
Режиссер: Тайлер Шилдс / Tyler Shields

В Ролях:


Эбигейл Бреслин (Veronica), Уэс Бентли, Логан Хаффман (Danny), Александр Людвиг (Chris), Камерон Брайт (Shane), Рис Томпсон (Nelson, слухи), Эмма Паэтц (Jennifer), Грэйсин Шиней (Young Veronica), Дезире Зуровски, Франческа Фишер-Иствуд (Ghost Girl), Бретт Сейдман

Описание:
В центре событий фильма группа подростков, решивших забавы ради совершить убийство. К несчастью в качестве жертвы они выбрали совсем не ту девчонку. Вскоре охотники сами оказались в роли добычи.

  • Мировая премьера:8 июля 2015

    ТЕХ.ДАННЫЕ:
    Качество: HDRip
    Формат: AVI
    Видео кодек: XviD
    Аудио кодек: AC3
    Видео: XviD, 720x304 (2.35:1), 1810 kbps, 23,976 fps, 0,345 bpp
    Аудио №1: AC3 / 2.0 / 44 kHz / 192 kbps / Русский
    Аудио №2: AC3 / 5.1 / 48 kHz / 384 kbps / английский
    Релиз от: Автор релиза: Озвучка от:

    Код:

    General
    Complete name                            : D:\Торенты\Final.Girl.2015.xixidok.HDRip.ExKinoRay.avi
    Format                                   : AVI
    Format/Info                              : Audio Video Interleave
    File size                                : 1.47 GiB
    Duration                                 : 1h 24mn
    Overall bit rate                         : 2 496 Kbps
    Writing application                      : VirtualDubMod 1.5.10.2 (build 2540/release)
    Writing library                          : VirtualDubMod build 2540/release
    Copyright                                : ExKinoRay

    Video
    ID                                       : 0
    Format                                   : MPEG-4 Visual
    Format profile                           : Advanced Simple@L5
    Format settings, BVOP                    : 1
    Format settings, QPel                    : No
    Format settings, GMC                     : No warppoints
    Format settings, Matrix                  : Custom
    Codec ID                                 : XVID
    Codec ID/Hint                            : XviD
    Duration                                 : 1h 24mn
    Bit rate                                 : 1 810 Kbps
    Width                                    : 720 pixels
    Height                                   : 304 pixels
    Display aspect ratio                     : 2.35:1
    Frame rate                               : 23.976 fps
    Color space                              : YUV
    Chroma subsampling                       : 4:2:0
    Bit depth                                : 8 bits
    Scan type                                : Progressive
    Compression mode                         : Lossy
    Bits/(Pixel*Frame)                       : 0.345
    Stream size                              : 1.06 GiB (73%)
    Writing library                          : XviD 73

    Audio #1
    ID                                       : 1
    Format                                   : AC-3
    Format/Info                              : Audio Coding 3
    Mode extension                           : CM (complete main)
    Codec ID                                 : 2000
    Duration                                 : 1h 24mn
    Bit rate mode                            : Constant
    Bit rate                                 : 192 Kbps
    Channel(s)                               : 2 channels
    Channel positions                        : Front: L R
    Sampling rate                            : 44.1 KHz
    Bit depth                                : 16 bits
    Compression mode                         : Lossy
    Stream size                              : 116 MiB (8%)
    Alignment                                : Split accross interleaves
    Title                                    : xixidok

    Audio #2
    ID                                       : 2
    Format                                   : AC-3
    Format/Info                              : Audio Coding 3
    Mode extension                           : CM (complete main)
    Codec ID                                 : 2000
    Duration                                 : 1h 24mn
    Bit rate mode                            : Constant
    Bit rate                                 : 384 Kbps
    Channel(s)                               : 6 channels
    Channel positions                        : Front: L C R, Side: L R, LFE
    Sampling rate                            : 48.0 KHz
    Bit depth                                : 16 bits
    Compression mode                         : Lossy
    Stream size                              : 231 MiB (15%)
    Alignment                                : Split accross interleaves

    Скриншоты:


    © Оформление by Ворон
    pb.wtf



  • Скачать Последняя девушка через торрент http://pic.kartinco.top/images/6/stazu.jpg Скачать фильм Последняя девушка через торрент бесплантно в хорошем качестве Описание: В центре событий фильма группа подростков, решивших забавы ради совершить убийство. К несчастью в качестве жертвы они выбрали ... 9.1 10 16
    Торрент: Зарегистрирован [2015-07-11 05:49] · скачан: 395 раз
    Статус: T временная
    Размер: 1.47 GB
    Как cкачать? Как скачать Последняя девушка через торрент | UTorrent

    % Раздел Тема Автор DL S | L
    Фильмы 2015 [DVDrip, WEB-DLRip, HDrip] [ 1.46 GB ] Последние девушки / The Final Girls [2015 BDRip-AVC от sokol_ok] MVO [] sokol_ok Скачать
    1 | 0
    Фильмы 2015 [DVDrip, WEB-DLRip, HDrip] [ 2.18 GB ] Последние девушки / The Final Girls [2015 BDRip-AVC от sokol_ok] MVO [] sokol_ok Скачать
    1 | 0
    T Фильмы (Blu-ray, BD-Remux, HDDVD) [ 20.79 GB ] Последняя девушка / Final Girl [2015 BDRemux 1080p] VO Ворон Скачать
    1 | 0
    Фильмы 2015 [DVDrip, WEB-DLRip, HDrip] [ 744 MB ] Последние девушки / The Final Girls [2015 BDRip-AVC от sokol_ok] MVO [] sokol_ok Скачать
    1 | 0


    Последний раз редактировалось: Ворон (2015-07-11 10:20), всего редактировалось 1 раз

    28-11-2019 20:33  

    Отключить всю рекламу на сайте

    11-07-2015 07:46 Последняя девушка Скачать торрент  

    смотрел кто а то в нете вообще ниодного отзыва нету?)) pb.wtf



    11-07-2015 09:22 Последняя девушка Скачать торрент  

    ranetka09, релиз выложили 4 ч. назад, какие нах. коменты)))
    Вот если не в терпёж)))pb.wtf



    12-07-2015 07:56 Последняя девушка Скачать торрент  

    1 раз посмотреть можноpb.wtf



    12-07-2015 11:12 Последняя девушка Скачать торрент  

    Походу фильм мусор...pb.wtf



    13-07-2015 16:43 Последняя девушка Скачать торрент  

    Boogeyman_35rus писал(а):

    Походу фильм мусор...

    зато пидеров нет, что радуетpb.wtf



    15-07-2015 19:15 Последняя девушка Скачать торрент  

    народ не смотрите ето говно, пиз дец мусорpb.wtf



      Дорогой пользователь! Огромная просьба, поблагодарите релизера, оцените раздачу и оставьте свои комментарий, если Вы скачали Последняя девушка через торрент бесплатно! Внесите свою лепту в развитие PiratBit!
      Комментировать посты могут только пользователи прошедшие не сложную регистрацию
      Показать сообщения:    

      Последняя девушка через торрент
      Скачать бесплатно Последняя девушка
      Последняя девушка скачать торрент
      Последняя девушка смотреть онлайн
      Cкачать фильм Последняя девушка бесплатно
      Последняя девушка скачать торрент в хорошем качестве
      Последняя девушка смотреть онлайн бесплатно в хорошем качестве


      Вы не можете начинать темы
      Вы не можете отвечать на сообщения
      Вы не можете редактировать свои сообщения
      Вы не можете удалять свои сообщения
      Вы не можете голосовать в опросах
      Вы не можете прикреплять файлы к сообщениям
      Вы можете скачивать файлы