Ссылка на приватное зеркало нашего сайта всего за 1$. Внимание количество ограничено!!!

2 сезон

iTunes

1 сезон

1

iTunes

iTunes

iTunes

1 сезон

RePack

30

ИГРА 18+

pack

ВАЖНО

!!Акция!!

Alien_RageХит недели

RePack

MK11
pack

Забери бонус

RePack

jed

!!Акция!!

Alien_Rage

RePack

fifa19

RePack

Assassins Creed: Odyssey

RePack

NEED FOR SPEED™ PAYBACK

4 сезон

9 сезон

Бесстыжие 9 сезон

Все сериалы

все сериалы на PB.wtf

RePack

FAR CRY 5
  

Превосходство / Transcendence (Уолли Пфистер / Wally Pfister) [2014, Великобритания, Китай, США, фантастика, драма, триллер, BDRip 1080p] DUB - «IPTV» pb.wtf

Превосходство через торрент pb.wtf

Размер: 13.27 GB | Добавлен: 5 лет 3 мес. назад | Торрент скачан:401 раз
Скачать  

11-07-2015 08:20 Превосходство Скачать торрент  


Превосходство / Transcendence
««What if a new intelligence was born?»»

ИНФОРМАЦИЯ:
Год выпуска:2014
Страна: Великобритания, Китай, США
Жанр: фантастика, драма, триллер
Продолжительность: 01:53:32
Перевод: Дубляж - «IPTV»
Субтитры: русские (Russian), английские (English),
Режиссер: Уолли Пфистер / Wally Pfister

В Ролях:
Джонни Депп (Will Caster), Ребекка Холл (Evelyn Caster), Пол Беттани (Max Waters), Киллиан Мёрфи (Agent Buchanan), Кейт Мара (Bree), Коул Хаузер (Colonel Stevens), Морган Фриман (Joseph Tagger), Клифтон Коллинз мл. (Martin), Кори Хардрикт (Joel Edmund), Фальк Хеншел (Bob), Джош Стюарт (Paul), Люче Рэйнс (Roger)

Описание:
Выдающийся исследователь в области изучения искусственного интеллекта доктор Уилл Кастер работает над созданием компьютера, который сможет собрать в себе все знания и опыт, накопленные человечеством. Достаточно спорные эксперименты, проводимые Уиллом, прославили его и в то же время сделали основной целью радикальной анти-технологической группировки. Экстремисты делают всё возможное, чтобы остановить учёного.
Однако в своих попытках уничтожить Уилла они добиваются обратного и становятся невольными участниками становления его абсолютного превосходства. Для его жены Эвелин и лучшего друга Макса Вотерса, тоже учёных-исследователей, встаёт вопрос, должны ли они продолжать этот эксперимент. Их худшие опасения претворяются в жизнь, когда жажда знаний Уилла переходит в неконтролируемую жажду власти...

  • Мировая премьера:10 апреля 2014

    ТЕХ.ДАННЫЕ:
    Качество: BDRip 1080p
    Формат: MKV
    Видео кодек: AVC
    Аудио кодек: AC3, DTS
    Видео: AVC, 1920x800 (2.40:1), 11575 kbps, 23,976 fps, 0,314 bpp
    Аудио №1: русский / AC3 / 5.1 / 48 kHz / 448 kbps / 16 bit || - DUB - «IPTV»
    Аудио №2: русский / DTS / 5.1 / 48 kHz / 1510 kbps / 16 bit || - AVO - Ю.Немахов
    Аудио №3: русский / DTS / 5.1 / 48 kHz / 1510 kbps / 16 bit || - AVO - Д.Есарев
    Аудио №4: украинский / AC3 / 2.0 / 48 kHz / 192 kbps / 16 bit- DUB - «IPTV» - Украинский
    Аудио №5: английский / DTS / 5.1 / 48 kHz / 1510 kbps / 24 bit
    Навигация по главам: есть


    Код:

    General
    Unique ID                                : 193876971934885248195767395124532970252 (0x91DB58B9502088E58BF900D1B953830C)
    Complete name                            : D:\Торенты\[2014] Превосходство [BDRip] [1080p].mkv
    Format                                   : Matroska
    Format version                           : Version 4 / Version 2
    File size                                : 13.3 GiB
    Duration                                 : 1h 53mn
    Overall bit rate                         : 16.7 Mbps
    Movie name                               : Превосходство / Transcendence (2014) BDRip [1080p]
    Encoded date                             : UTC 2015-07-09 14:58:00
    Writing application                      : mkvmerge v7.8.0 ('River Man') 32bit built on Mar 27 2015 16:18:02
    Writing library                          : libebml v1.3.1 + libmatroska v1.4.2

    Video
    ID                                       : 1
    Format                                   : AVC
    Format/Info                              : Advanced Video Codec
    Format profile                           : High@L4.1
    Format settings, CABAC                   : Yes
    Format settings, ReFrames                : 5 frames
    Codec ID                                 : V_MPEG4/ISO/AVC
    Duration                                 : 1h 53mn
    Bit rate                                 : 11.6 Mbps
    Width                                    : 1 920 pixels
    Height                                   : 800 pixels
    Display aspect ratio                     : 2.40:1
    Frame rate                               : 23.976 fps
    Color space                              : YUV
    Chroma subsampling                       : 4:2:0
    Bit depth                                : 8 bits
    Scan type                                : Progressive
    Bits/(Pixel*Frame)                       : 0.314
    Stream size                              : 8.91 GiB (67%)
    Title                                    : [2014] Превосходство / Transcendence [BDRip] [1080p]
    Writing library                          : x264 core 146 r2538 121396c
    Encoding settings                        : cabac=1 / ref=5 / deblock=1:-3:-3 / analyse=0x3:0x113 / me=umh / subme=10 / psy=1 / psy_rd=1.00:0.10 / mixed_ref=1 / me_range=24 / chroma_me=1 / trellis=2 / 8x8dct=1 / cqm=0 / deadzone=21,11 / fast_pskip=1 / chroma_qp_offset=-1 / threads=3 / lookahead_threads=1 / sliced_threads=0 / nr=0 / decimate=1 / interlaced=0 / bluray_compat=0 / constrained_intra=0 / bframes=5 / b_pyramid=2 / b_adapt=2 / b_bias=0 / direct=1 / weightb=1 / open_gop=1 / weightp=2 / keyint=230 / keyint_min=22 / scenecut=40 / intra_refresh=0 / rc_lookahead=50 / rc=2pass / mbtree=1 / bitrate=11575 / ratetol=1.0 / qcomp=0.50 / qpmin=0 / qpmax=51 / qpstep=4 / cplxblur=20.0 / qblur=0.5 / vbv_maxrate=45500 / vbv_bufsize=55000 / nal_hrd=none / filler=0 / ip_ratio=1.40 / aq=1:1.00 / zones=151157,163341,q=26
    Language                                 : English
    Default                                  : Yes
    Forced                                   : No
    Color primaries                          : BT.709-5, BT.1361, IEC 61966-2-4, SMPTE RP177
    Transfer characteristics                 : BT.709-5, BT.1361
    Matrix coefficients                      : BT.709-5, BT.1361, IEC 61966-2-4 709, SMPTE RP177

    Audio #1
    ID                                       : 2
    Format                                   : AC-3
    Format/Info                              : Audio Coding 3
    Mode extension                           : CM (complete main)
    Codec ID                                 : A_AC3
    Duration                                 : 1h 53mn
    Bit rate mode                            : Constant
    Bit rate                                 : 448 Kbps
    Channel(s)                               : 6 channels
    Channel positions                        : Front: L C R, Side: L R, LFE
    Sampling rate                            : 48.0 KHz
    Bit depth                                : 16 bits
    Compression mode                         : Lossy
    Stream size                              : 364 MiB (3%)
    Title                                    : DUB - «IPTV»
    Language                                 : Russian
    Default                                  : Yes
    Forced                                   : No

    Audio #2
    ID                                       : 3
    Format                                   : DTS
    Format/Info                              : Digital Theater Systems
    Codec ID                                 : A_DTS
    Duration                                 : 1h 53mn
    Bit rate mode                            : Constant
    Bit rate                                 : 1 510 Kbps
    Channel(s)                               : 6 channels
    Channel positions                        : Front: L C R, Side: L R, LFE
    Sampling rate                            : 48.0 KHz
    Bit depth                                : 16 bits
    Compression mode                         : Lossy
    Stream size                              : 1.20 GiB (9%)
    Title                                    : AVO - Ю.Немахов
    Language                                 : Russian
    Default                                  : No
    Forced                                   : No

    Audio #3
    ID                                       : 4
    Format                                   : DTS
    Format/Info                              : Digital Theater Systems
    Codec ID                                 : A_DTS
    Duration                                 : 1h 53mn
    Bit rate mode                            : Constant
    Bit rate                                 : 1 510 Kbps
    Channel(s)                               : 6 channels
    Channel positions                        : Front: L C R, Side: L R, LFE
    Sampling rate                            : 48.0 KHz
    Bit depth                                : 16 bits
    Compression mode                         : Lossy
    Stream size                              : 1.20 GiB (9%)
    Title                                    : AVO - Д.Есарев
    Language                                 : Russian
    Default                                  : No
    Forced                                   : No

    Audio #4
    ID                                       : 5
    Format                                   : AC-3
    Format/Info                              : Audio Coding 3
    Format profile                           : Dolby Digital
    Mode extension                           : CM (complete main)
    Codec ID                                 : A_AC3
    Duration                                 : 1h 53mn
    Bit rate mode                            : Constant
    Bit rate                                 : 192 Kbps
    Channel(s)                               : 2 channels
    Channel positions                        : Front: L R
    Sampling rate                            : 48.0 KHz
    Bit depth                                : 16 bits
    Compression mode                         : Lossy
    Stream size                              : 156 MiB (1%)
    Title                                    : DUB - «IPTV»
    Language                                 : Ukrainian
    Default                                  : No
    Forced                                   : No

    Audio #5
    ID                                       : 6
    Format                                   : DTS
    Format/Info                              : Digital Theater Systems
    Format profile                           : ES
    Codec ID                                 : A_DTS
    Duration                                 : 1h 53mn
    Bit rate mode                            : Constant
    Bit rate                                 : 1 510 Kbps
    Channel(s)                               : 6 channels
    Channel positions                        : Front: L C R, Side: L R, LFE
    Sampling rate                            : 48.0 KHz
    Bit depth                                : 24 bits
    Compression mode                         : Lossy
    Stream size                              : 1.20 GiB (9%)
    Title                                    : Original
    Language                                 : English
    Default                                  : No
    Forced                                   : No

    Text #1
    ID                                       : 7
    Format                                   : UTF-8
    Codec ID                                 : S_TEXT/UTF8
    Codec ID/Info                            : UTF-8 Plain Text
    Title                                    : Russian
    Language                                 : Russian
    Default                                  : No
    Forced                                   : No

    Text #2
    ID                                       : 8
    Format                                   : UTF-8
    Codec ID                                 : S_TEXT/UTF8
    Codec ID/Info                            : UTF-8 Plain Text
    Title                                    : English
    Language                                 : English
    Default                                  : No
    Forced                                   : No

    Menu
    00:00:00.000                             : :Chapter 01
    00:16:19.937                             : :Chapter 02
    00:26:46.771                             : :Chapter 03
    00:35:55.069                             : :Chapter 04
    00:43:04.456                             : :Chapter 05
    00:52:59.509                             : :Chapter 06
    00:59:45.748                             : :Chapter 07
    01:07:40.389                             : :Chapter 08
    01:18:00.592                             : :Chapter 09
    01:28:05.822                             : :Chapter 10
    01:35:26.720                             : :Chapter 11
    01:45:09.553                             : :Chapter 12
    01:53:32.764                             : :Chapter 13

    Скриншоты:


    © Оформление by Ворон
    pb.wtf



  • Скачать Превосходство через торрент http://s017.radikal.ru/i440/1507/34/fc4a974b815f.png Скачать фильм Превосходство через торрент бесплантно в хорошем качестве Описание: Выдающийся исследователь в области изучения искусственного интеллекта доктор Уилл Кастер работает над созданием компьютера, ... 9.8 10 18
    Info! Золотая раздача, скачанное не засчитывается.
    Торрент: Зарегистрирован [2015-07-11 08:20] · скачан: 401 раз
    Статус: √ проверено
    Размер: 13.27 GB
    Как cкачать? Как скачать Превосходство через торрент | qTorrent

    % Раздел Тема Автор DL S | L
    Фильмы [HD 720p, 1080p] (Хороший звук DUB, MVO) [ 5.22 GB ] Превосходство / Transcendence [2014 BDRip 720p] DUB - «IPTV» AVO potroks Скачать
    1 | 0

    28-11-2019 20:33  

    Отключить всю рекламу на сайте

    30-01-2016 20:50 Превосходство Скачать торрент  

    Слава Богу, что дубляж хотя бы с телека записать удалось в 5.1!))pb.wtf



      Дорогой пользователь! Огромная просьба, поблагодарите релизера, оцените раздачу и оставьте свои комментарий, если Вы скачали Превосходство через торрент бесплатно! Внесите свою лепту в развитие PiratBit!
      Комментировать посты могут только пользователи прошедшие не сложную регистрацию
      Показать сообщения:    

      Превосходство через торрент
      Скачать бесплатно Превосходство
      Превосходство скачать торрент
      Превосходство смотреть онлайн
      Cкачать фильм Превосходство бесплатно
      Превосходство скачать торрент в хорошем качестве
      Превосходство смотреть онлайн бесплатно в хорошем качестве


      Вы не можете начинать темы
      Вы не можете отвечать на сообщения
      Вы не можете редактировать свои сообщения
      Вы не можете удалять свои сообщения
      Вы не можете голосовать в опросах
      Вы не можете прикреплять файлы к сообщениям
      Вы можете скачивать файлы