2 сезон

iTunes

MVO

1

2 сезон

iTunes

iTunes

1 сезон

RePack

30

Ultimate

ВАЖНО

ИГРА 18+

pack

RePack

MK11
pack

Легкие деньги

RePack

jed

RePack

fifa19

RePack

RDR2

RePack

NEED FOR SPEED™ PAYBACK

4 сезон

9 сезон

Бесстыжие 9 сезон

Все сериалы

все сериалы на PB.wtf

RePack

FAR CRY 5

Anonymous, доброй ночи, мы не успеваем собрать деньги на оплату серверов за декабрь и январь, помогите нам пожалуйста в это трудное время. В качестве благодарности мы отключим Вам всю рекламу на сайте (укажите свой ник в строку Ваше имя)!

×
  
Magnet ссылка

Меч дракона в 3D / Tian jiang xiong shi in 3D (Дэниэл Ли) [2015 г., боевик, драма, приключения, BDRip 1080p, Одноголосый закадровый (А.Дольский)] Анаглиф (Дюбуа) pb.wtf

Меч дракона в 3D через торрент pb.wtf

Размер: 7.47 GB | Добавлен: 5 лет 6 мес. назад | Торрент скачан:49 раз
Скачать  

11-07-2015 09:10 Меч дракона в 3D Скачать торрент  

Меч дракона в 3D / Tian jiang xiong shi in 3D
Год выпуска: 2015
Страна: Китай
Жанр: боевик, драма, приключения
Продолжительность: 02:07:10
Перевод: Авторский (одноголосый)(Андрей Дольский)
Режиссер: Дэниэл Ли
В ролях: Джеки Чан (Huo An), Джон Кьюсак (Lucius), Эдриан Броуди (Tiberius), Чхве Ши Вон (Yin Po), Линь Пэн (Cold Moon), Мика Ванг (Xin Qing), Шарни Винсон (Lady Crassus), Элис Браун (Queen), Жозеф Вейт (Publius - The Roman Prince), Пол Филип Кларк (General Doramis), Кевин Ли (Roman Solider), Лори (Persian Queen)

Описание:
Действие фильма разворачивается в Древнем Китае во времена правления династии Хань. Римский полководец Луция с легионом своих солдат оказывается на территории Китая. В это же время командир отряда охраны Западного региона Хо Ань в результате действий своих врагов становится рабом. И этим двум воинам было суждено встретиться в Западной пустыне, где развернётся эпическое сражение. Однако биться они будут не друг против друга, как можно было бы подумать, а против алчного императора Тиберия за суверенитет Китая.

Доп. информация: Формат 3D: Анаглиф (Дюбуа)



Рейтинг:


Качество: BDRip 1080p
Формат: MKV
Видео кодек: AVC
Аудио кодек:AC3
Видео: AVC, 1920x1080 (16:9), 7601 kbps, 23,976 fps, 0,153 bpp
Аудио: русский / AC3 / 5.1 / 48 kHz / 640 kbps / 16 bit ||
Навигация по главам: есть

x264 [info]: frame I:2231 Avg QP:11.97 size:220511
x264 [info]: frame P:55127 Avg QP:15.28 size: 72928
x264 [info]: frame B:125598 Avg QP:17.81 size: 23056
x264 [info]: consecutive B-frames: 5.9% 7.2% 19.0% 39.4% 28.5%


General
Unique ID : 255035215155729898820935466442501888611 (0xBFDDFEEB0E45DD74A85221EAB72F9A63)
Complete name : D:\DVD\DragonBlade(2015)3D(Anaglyph_Dubois)VO-A.Dolskiy.mkv
Format : Matroska
Format version : Version 4 / Version 2
File size : 7.47 GiB
Duration : 2h 7mn
Overall bit rate : 8 408 Kbps
Movie name : Меч дракона / Dragon Blade / Tian jiang xiong shi (2015) в 3Д (Anaglyph_Dubois)
Encoded date : UTC 2015-07-11 07:28:54
Writing application : mkvmerge v6.2.0 ('Promised Land') built on Apr 28 2013 12:22:01
Writing library : libebml v1.3.0 + libmatroska v1.4.0

Video
ID : 1
Format : AVC
Format/Info : Advanced Video Codec
Format profile : High@L4.1
MultiView_Count : 2
MultiView_Layout : Anaglyph (cyan/red)
Format settings, CABAC : Yes
Format settings, ReFrames : 4 frames
Codec ID : V_MPEG4/ISO/AVC
Duration : 2h 7mn
Bit rate : 7 601 Kbps
Width : 1 920 pixels
Height : 1 080 pixels
Display aspect ratio : 16:9
Frame rate : 23.976 fps
Color space : YUV
Chroma subsampling : 4:2:0
Bit depth : 8 bits
Scan type : Progressive
Bits/(Pixel*Frame) : 0.153
Stream size : 6.75 GiB (90%)
Title : slaventi-69
Writing library : x264 core 130 r2273 b3065e6
Encoding settings : cabac=1 / ref=4 / deblock=1:0:0 / analyse=0x3:0x113 / me=umh / subme=8 / psy=1 / psy_rd=1.00:0.00 / mixed_ref=1 / me_range=16 / chroma_me=1 / trellis=2 / 8x8dct=1 / cqm=0 / deadzone=21,11 / fast_pskip=1 / chroma_qp_offset=-2 / threads=3 / lookahead_threads=1 / sliced_threads=0 / nr=0 / decimate=1 / interlaced=0 / bluray_compat=0 / constrained_intra=0 / bframes=4 / b_pyramid=2 / b_adapt=2 / b_bias=0 / direct=1 / weightb=1 / open_gop=0 / weightp=2 / keyint=250 / keyint_min=23 / scenecut=40 / intra_refresh=0 / rc_lookahead=40 / rc=crf / mbtree=1 / crf=17.5 / qcomp=0.60 / qpmin=0 / qpmax=69 / qpstep=4 / ip_ratio=1.40 / aq=1:1.00
Language : Chinese
Default : Yes
Forced : No

Audio
ID : 2
Format : AC-3
Format/Info : Audio Coding 3
Mode extension : CM (complete main)
Codec ID : A_AC3
Duration : 2h 7mn
Bit rate mode : Constant
Bit rate : 640 Kbps
Channel(s) : 6 channels
Channel positions : Front: L C R, Side: L R, LFE
Sampling rate : 48.0 KHz
Bit depth : 16 bits
Compression mode : Lossy
Stream size : 582 MiB (8%)
Title : Одноголосый закадровый - А.Дольский
Language : Russian
Default : Yes
Forced : No

Menu
00:00:00.000 : :1
00:09:07.922 : :2
00:20:20.719 : :3
00:33:51.194 : :4
00:41:35.201 : :5
00:52:37.528 : :6
01:04:45.715 : :7
01:14:50.985 : :8
01:26:40.778 : :9
01:34:43.219 : :10
01:44:40.106 : :11
01:52:04.926 : :12
скриншот   скриншот   скриншот   скриншот   скриншот  pb.wtf



Скачать Меч дракона в 3D через торрент http://i71.fastpic.ru/big/2015/0711/81/52086ea83eccd1f8f076e2ac9931dd81.jpeg Скачать фильм Меч дракона в 3D через торрент бесплантно в хорошем качестве Описание: Действие фильма разворачивается в Древнем Китае во времена правления династии Хань. Римский полководец Луция с легионом своих ... 10 10 2
Торрент: Зарегистрирован [2015-07-11 09:10] · скачан: 49 раз
Статус: √ проверено
Размер: 7.47 GB
Как cкачать? Как скачать Меч дракона в 3D через торрент | UTorrent

28-11-2019 20:33  

Отключить всю рекламу на сайте

07-12-2015 11:24 Меч дракона в 3D Скачать торрент  

Круто.pb.wtf



    Дорогой пользователь! Огромная просьба, поблагодарите релизера, оцените раздачу и оставьте свои комментарий, если Вы скачали Меч дракона в 3D через торрент бесплатно! Внесите свою лепту в развитие PiratBit!
    Комментировать посты могут только пользователи прошедшие не сложную регистрацию
    Показать сообщения:    

    Меч дракона в 3D через торрент
    Скачать бесплатно Меч дракона в 3D
    Меч дракона в 3D скачать торрент
    Меч дракона в 3D смотреть онлайн
    Cкачать фильм Меч дракона в 3D бесплатно
    Меч дракона в 3D скачать торрент в хорошем качестве
    Меч дракона в 3D смотреть онлайн бесплатно в хорошем качестве


    Вы не можете начинать темы
    Вы не можете отвечать на сообщения
    Вы не можете редактировать свои сообщения
    Вы не можете удалять свои сообщения
    Вы не можете голосовать в опросах
    Вы не можете прикреплять файлы к сообщениям
    Вы можете скачивать файлы