новый адрес
Ссылка на приватное зеркало всего за 1$. Внимание количество ограничено!!!

iTunes

1+1

iTunes

мы

WEB-DL

1

iTunes

Чернобыль

iTunes

Ральф против интернета

Лицензия

ПШазам

Лицензия

Оно 2

Лицензия

30
pack

Вам бонус

ВАЖНО

!!Акция!!

Alien_RageХит недели

RePack

Resident Evil 21

ИГРА 18+

pack

RePack

jed

!!Акция!!

Alien_Rage

RePack

fifa19

RePack

Assassins Creed: Odyssey

RePack

NEED FOR SPEED™ PAYBACK

3 сезон

9 сезон

Бесстыжие 9 сезон

Все сериалы

все сериалы на PB.wtf

RePack

FAR CRY 5
Ребята, катастрофически не хватает 1900р. для оплаты серверов за Октябрь (всвязи с блокировками трафик упал в 3 раза), 1-2р., выручайте.
  

Русский вопрос (Михаил Ромм) [1947, СССР, драма, DVDRip от AVP Studio] pb.wtf

Русский вопрос через торрент pb.wtf

Размер: 1.46 GB | Добавлен: 4 года 4 мес. назад | Торрент скачан:22 раза
Скачать  

11-07-2015 12:55 Русский вопрос Скачать торрент  

Русский вопрос
Страна: СССР
Производство: Мосфильм

Жанр: драма
Год выпуска: 1947
Продолжительность: 01:27:02

Перевод: Не требуется
Cубтитры: нет
Оригинальная аудиодорожка: русский

Режиссер: Михаил Ромм

В ролях:
Всеволод Аксенов, Елена Кузьмина, Михаил Астангов, Михаил Названов, Мария Барабанова, Аркадий Цинман, Борис Пославский, Борис Тенин, Геннадий Юдин, Михаил Трояновский, Сергей Антимонов, Виктор Драгунский...

Описание:
Владельцы нескольких реакционных газет, посылают журналиста Гарри Смита в Россию за «свежим» материалом для подпитки клеветнической кампании против Советского Союза. Вернувшись из России, журналист пишет статью, в которой отвечает на злободневный вопрос: «Хотят ли русские войны?». Прочитав статью журналиста, газетовладелец увольняет журналиста. Смит становится выразителем идей той части американцев, которая готова вступить в борьбу против хозяев с Уолл-стрит.

Источник: DVD5 R5
Качество видео: DVDRip
Формат видео: AVI
Видео кодек: XviD
Аудио кодек: AC3
Видео: 688x512 (4:3), 25 fps, XviD ~ 2259 kbps avg, 0.256 bit/pixel
Аудио: 48 kHz, Dolby Digital AC3 1.0, 128 kbps

Раздача от:
Общее
Полное имя : Russkiy.vopros.1947.DVDRip_[New-team]_by_AVP_Studio.avi
Формат : AVI
Формат/Информация : Audio Video Interleave
Размер файла : 1,46 Гбайт
Продолжительность : 1 ч. 27 м.
Общий поток : 2396 Кбит/сек
Программа кодирования : VirtualDubModRus 1.5.10.2 (build 2542/release)
Библиотека кодирования : VirtualDubMod build 2542/release

Видео
Идентификатор : 0
Формат : MPEG-4 Visual
Профиль формата : Advanced Simple@L5
Параметр BVOP формата : 1
Параметр QPel формата : Нет
Параметр GMC формата : Без точки перехода
Параметр матрицы формата : Выборочная
Идентификатор кодека : XVID
Идентификатор кодека/Подсказка : XviD
Продолжительность : 1 ч. 27 м.
Битрейт : 2259 Кбит/сек
Ширина : 688 пикселей
Высота : 512 пикселей
Соотношение сторон : 4:3
Частота кадров : 25,000 кадров/сек
Цветовое пространство : YUV
Субдискретизация насыщенности : 4:2:0
Битовая глубина : 8 бит
Тип развёртки : Прогрессивная
Метод сжатия : С потерями
Бит/(Пиксели*Кадры) : 0.256
Размер потока : 1,37 Гбайт (94%)
Библиотека кодирования : XviD 73

Аудио
Идентификатор : 1
Формат : AC-3
Формат/Информация : Audio Coding 3
Расширение режима : CM (complete main)
Параметр Endianness формата : Big
Идентификатор кодека : 2000
Продолжительность : 1 ч. 27 м.
Вид битрейта : Постоянный
Битрейт : 128 Кбит/сек
Каналы : 1 канал
Расположение каналов : Front: C
Частота : 48,0 КГц
Битовая глубина : 16 бит
Метод сжатия : С потерями
Размер потока : 79,7 Мбайт (5%)
Выравнивание : Разделение по промежуткам
Продолжительность промежутка : 40 мс. (1,00 видеокадр)
Время предзагрузки промежутка : 500 мс
1136374
pb.wtf



Скачать Русский вопрос через торрент http://i004.radikal.ru/1507/08/d0603fd4a3b3.png Скачать фильм Русский вопрос через торрент бесплантно в хорошем качестве Описание:Владельцы нескольких реакционных газет, посылают журналиста Гарри Смита в Россию за «свежим» материалом для подпитки ... 10 10 1
Info! Золотая раздача, скачанное не засчитывается.
Торрент: Зарегистрирован [2015-07-11 12:55] · скачан: 22 раз
Статус: √ проверено
Размер: 1.46 GB
Как cкачать? Как скачать Русский вопрос через торрент | qTorrent

% Раздел Тема Автор DL S | L
Кино СССР [ 1.46 GB ] Русский вопрос [1947 СССР DVDRip-AVC от AVP Studio] AVP Studio Скачать
1 | 0
Кино СССР [ 744 MB ] Русский вопрос [1947 СССР DVDRip от AVP Studio] AVP Studio Скачать
1 | 0
Документальные фильмы и телепередачи [ 459 MB ] Вопросы и ответы о русском национализме [2013 документальный WEBRip Оригинал] metanoia Скачать
1 | 0

28-11-2019 20:33  

Отключить всю рекламу на сайте

    Дорогой пользователь! Огромная просьба, поблагодарите релизера, оцените раздачу и оставьте свои комментарий, если Вы скачали Русский вопрос через торрент бесплатно! Внесите свою лепту в развитие PiratBit!
    Комментировать посты могут только пользователи прошедшие не сложную регистрацию
    Показать сообщения:    

    Русский вопрос через торрент
    Скачать бесплатно Русский вопрос
    Русский вопрос скачать торрент
    Русский вопрос смотреть онлайн
    Cкачать фильм Русский вопрос бесплатно
    Русский вопрос скачать торрент в хорошем качестве
    Русский вопрос смотреть онлайн бесплатно в хорошем качестве


    Вы не можете начинать темы
    Вы не можете отвечать на сообщения
    Вы не можете редактировать свои сообщения
    Вы не можете удалять свои сообщения
    Вы не можете голосовать в опросах
    Вы не можете прикреплять файлы к сообщениям
    Вы можете скачивать файлы