Ссылка на приватное зеркало нашего сайта всего за 1$. Внимание количество ограничено!!!

2 сезон

iTunes

1 сезон

1

iTunes

iTunes

iTunes

1 сезон

RePack

30

ИГРА 18+

pack

ВАЖНО

!!Акция!!

Alien_RageХит недели

RePack

MK11
pack

Забери бонус

RePack

jed

!!Акция!!

Alien_Rage

RePack

fifa19

RePack

Assassins Creed: Odyssey

RePack

NEED FOR SPEED™ PAYBACK

4 сезон

9 сезон

Бесстыжие 9 сезон

Все сериалы

все сериалы на PB.wtf

RePack

FAR CRY 5
  

Дж. Эдгар / J. Edgar (Клинт Иствуд / Clint Eastwood)[2011, драма, криминал, биография, BDRip 720p от _denis_100] DUB 2xAVO pb.wtf

Дж. Эдгар через торрент pb.wtf

Размер: 5.75 GB | Добавлен: 5 лет 3 мес. назад | Торрент скачан:117 раз
Скачать  

12-07-2015 07:21 Дж. Эдгар Скачать торрент  

Дж. Эдгар / J. Edgar
«Самый влиятельный человек в мире»


Год выпуска: 2011
Страна: США
Жанр: драма, криминал, биография
Продолжительность: 02:16:54
Перевод: Дублированный - [Лицензия], Авторский (одноголосый)
Субтитры: Russian (2 вида), Russian (Forced)
Режиссер: Клинт Иствуд
В ролях: Леонардо ДиКаприо , Арми Хаммер , Наоми Уоттс , Джуди Денч , Дермот Малруни , Джош Лукас , Майлз Фишер , Джош Хэмилтон , Джеффри Пирсон , Шерил Лосон , Кейтлин Дивер , Брэйди Мэтьюз
Описание:
В течение всей жизни Джон Эдгар Гувер поднимался к вершинам власти, чтобы стать самым могущественным человеком в Америке. Будучи главой Федерального бюро расследований, он ни перед чем не останавливался, чтобы защитить свою страну. Пережив восемь президентов и три войны, Гувер вел сражения с угрозами как реальными, так и надуманными, зачастую нарушая правила, чтобы уберечь сограждан от опасности. Он был безжалостен и был героем, причем одновременно; мир восхищался им, что было для него самой желанной, пусть и не материальной, наградой.
«Дж. Эдгар» глазами самого Гувера показывает нам его частную и общественную жизнь и отношения с окружающими человека, который мог с тем же успехом исказить правду, с каким он защищал ее в течение всей своей жизни, посвященной воплощению его собственной идеи справедливости, на которую часто влияла темная сторона власти.

R - Лицам до 17 лет обязательно присутствие взрослого
Качество: BDRip 720p
Контейнер (Расширение): MKV
Видео кодек: AVC
Аудио кодек: AC3
Видео: 1280x534, 3450 Кбит/сек, 23,976 кадр/сек, 0,211 Бит/[Пиксели*Кадры]
Аудио 1: AC3 5.1 48 kHz 640 kbps - Дублированный
Аудио 2: AC3 5.1 48 kHz 640 kbps - Авторский, Ю.Сербин
Аудио 3: AC3 5.1 48 kHz 640 kbps - Авторский, А.Дасевич
Аудио 4: AC3 5.1 48 kHz 640 kbps - English
Навигация по главам(Чаптеры): естьАвтор рипа: Сообщество:
  • Копии с фильмом рассылались по американским кинотеатрам под фальшивым названием Lawman («Законник»).
  • Первоначальным вариантом названия фильма было просто «Гувер», а не «Дж. Эдгар».
  • Первоначальным выбором на роль Хелен Ганди была Шарлиз Терон, но актриса выбыла из проекта ради участия в картине «Белоснежка и охотник» (2012). Следующей кандидатурой на неё была Эми Адамс, однако в итоге роль досталась Наоми Уоттс.
  • Кино о Гувере собирались сделать на Universal, но в итоге проект оказался на студии Warner - реакция Universal на сценарий Дастина Лэнса Блэка была негативной.
  • Гардероб Леонардо ДиКаприо насчитывал 80 костюмов. Поскольку действие фильма протекает на протяжении свыше 60 лет, художнику по костюмам Деборе Хупер нужно было отразить всю эволюцию стилей одежды за этот период.
  • Грим Леонардо ДиКаприо включал в себя гипсовую маску на всё лицо, различные накладки, парики, седые волосы и простетический нос.
  • Сцены скачек на ипподроме с участием Эдгара Гувера (Леонардо ДиКаприо) и Клайда Толсона (Арми Хаммер) были сняты на студии на фоне зелёного экрана.
  • Съёмочная группа фильма не имела финансовых возможностей воспроизвести гранитный пол министерства юстиции в Вашингтоне. Художнику-постановщику картины и его команде из-за этого пришлось применить оригинальный подход. Они сфотографировали поверхность со всех возможных углов, а затем воспроизвели её из фанеры.
  • Одним из претендентов на роль Клайда Толсона был Хоакин Феникс.
  • Джош Лукас с большим энтузиазмом согласился на роль знаменитого авиатора Чарльза Линдберга. Актёр сделал это в честь своей бабушки, которая тоже была известной лётчицей и одной из первых женщин коммерческих пилотов в стране.
  • Джуди Денч, сыгравшая мать главного героя, сломала палец на съёмках предыдущего фильма, но скрыла этот факт от продюсеров фильма, чтобы не потерять роль. Ей пришлось играть свою роль, превозмогая боль от травмы.
  • Прадед Арми Хаммера, актёра, сыгравшего роль Толсона, был магнатом, владевшим корпорацией Occidental Petroleum. В книге под названием «Досье: Тайная история Арманда Хаммера» автор Эдвард Джей Эпштейн упрекал этого олигарха в тайных связях с Джоном Эдгаром Гувером и СССР. Актёр заявил, что согласился на роль специально, чтобы «отомстить критикам».
  • На самом деле Дж. Эдгар - это Джон Эдгар Гувер, самый знаменитый и амбициозный глава ФБР за всю историю бюро. Гувер встал у руля Бюро расследований в 1929-м году и занимал этот пост почти полвека, вплоть до своей смерти в 1972-м году. Он достиг немалых успехов, но был уличён в многочисленных злоупотреблениях полномочиями.
  • Код:

    Format                                   : Matroska
    Format version                           : Version 2
    File size                                : 5.75 GiB
    Duration                                 : 2h 16mn
    Overall bit rate                         : 6 010 Kbps
    Movie name                               : Dzh. Jedgar.(2011).BDRip.720p.[denis100]
    Encoded date                             : UTC 2014-04-05 12:22:51
    Writing application                      : mkvmerge v5.8.0 ('No Sleep / Pillow') built on Sep  2 2012 15:37:04
    Writing library                          : libebml v1.2.3 + libmatroska v1.3.0

    Video
    ID                                       : 1
    Format                                   : AVC
    Format/Info                              : Advanced Video Codec
    Format profile                           : High@L4.1
    Format settings, CABAC                   : Yes
    Format settings, ReFrames                : 11 frames
    Codec ID                                 : V_MPEG4/ISO/AVC
    Duration                                 : 2h 16mn
    Bit rate                                 : 3 450 Kbps
    Width                                    : 1 280 pixels
    Height                                   : 534 pixels
    Display aspect ratio                     : 2.40:1
    Frame rate                               : 23.976 fps
    Color space                              : YUV
    Chroma subsampling                       : 4:2:0
    Bit depth                                : 8 bits
    Scan type                                : Progressive
    Bits/(Pixel*Frame)                       : 0.211
    Stream size                              : 3.18 GiB (55%)
    Title                                    : Dzh. Jedgar.(2011).BDRip.720p.[denis100]
    Writing library                          : x264 core 138 r2358 9e941d1
    Encoding settings                        : cabac=1 / ref=11 / deblock=1:-3:-3 / analyse=0x3:0x133 / me=umh / subme=11 / psy=1 / psy_rd=1.00:0.10 / mixed_ref=1 / me_range=32 / chroma_me=1 / trellis=2 / 8x8dct=1 / cqm=0 / deadzone=21,11 / fast_pskip=0 / chroma_qp_offset=-3 / threads=6 / lookahead_threads=1 / sliced_threads=0 / nr=0 / decimate=1 / interlaced=0 / bluray_compat=0 / constrained_intra=0 / bframes=8 / b_pyramid=2 / b_adapt=2 / b_bias=0 / direct=3 / weightb=1 / open_gop=0 / weightp=2 / keyint=240 / keyint_min=23 / scenecut=40 / intra_refresh=0 / rc=2pass / mbtree=0 / bitrate=3450 / ratetol=1.0 / qcomp=0.60 / qpmin=0 / qpmax=69 / qpstep=4 / cplxblur=20.0 / qblur=0.5 / ip_ratio=1.40 / pb_ratio=1.30 / aq=2:0.80
    Language                                 : English
    Default                                  : Yes
    Forced                                   : No

    Audio #1
    ID                                       : 2
    Format                                   : AC-3
    Format/Info                              : Audio Coding 3
    Mode extension                           : CM (complete main)
    Codec ID                                 : A_AC3
    Duration                                 : 2h 16mn
    Bit rate mode                            : Constant
    Bit rate                                 : 640 Kbps
    Channel(s)                               : 6 channels
    Channel positions                        : Front: L C R, Side: L R, LFE
    Sampling rate                            : 48.0 KHz
    Bit depth                                : 16 bits
    Compression mode                         : Lossy
    Stream size                              : 627 MiB (11%)
    Title                                    : Дублированный, Blu-ray CEE
    Language                                 : Russian
    Default                                  : Yes
    Forced                                   : No

    Audio #2
    ID                                       : 3
    Format                                   : AC-3
    Format/Info                              : Audio Coding 3
    Mode extension                           : CM (complete main)
    Codec ID                                 : A_AC3
    Duration                                 : 2h 16mn
    Bit rate mode                            : Constant
    Bit rate                                 : 640 Kbps
    Channel(s)                               : 6 channels
    Channel positions                        : Front: L C R, Side: L R, LFE
    Sampling rate                            : 48.0 KHz
    Bit depth                                : 16 bits
    Compression mode                         : Lossy
    Stream size                              : 627 MiB (11%)
    Title                                    : Авторский, Ю.Сербин
    Language                                 : Russian
    Default                                  : No
    Forced                                   : No

    Audio #3
    ID                                       : 4
    Format                                   : AC-3
    Format/Info                              : Audio Coding 3
    Mode extension                           : CM (complete main)
    Codec ID                                 : A_AC3
    Duration                                 : 2h 16mn
    Bit rate mode                            : Constant
    Bit rate                                 : 640 Kbps
    Channel(s)                               : 6 channels
    Channel positions                        : Front: L C R, Side: L R, LFE
    Sampling rate                            : 48.0 KHz
    Bit depth                                : 16 bits
    Compression mode                         : Lossy
    Stream size                              : 627 MiB (11%)
    Title                                    : Авторский, А.Дасевич
    Language                                 : Russian
    Default                                  : No
    Forced                                   : No

    Audio #4
    ID                                       : 5
    Format                                   : AC-3
    Format/Info                              : Audio Coding 3
    Mode extension                           : CM (complete main)
    Codec ID                                 : A_AC3
    Duration                                 : 2h 16mn
    Bit rate mode                            : Constant
    Bit rate                                 : 640 Kbps
    Channel(s)                               : 6 channels
    Channel positions                        : Front: L C R, Side: L R, LFE
    Sampling rate                            : 48.0 KHz
    Bit depth                                : 16 bits
    Compression mode                         : Lossy
    Stream size                              : 627 MiB (11%)
    Title                                    : English
    Language                                 : English
    Default                                  : No
    Forced                                   : No

    Text #1
    ID                                       : 6
    Format                                   : UTF-8
    Codec ID                                 : S_TEXT/UTF8
    Codec ID/Info                            : UTF-8 Plain Text
    Title                                    : Russian
    Language                                 : Russian
    Default                                  : No
    Forced                                   : No

    Text #2
    ID                                       : 7
    Format                                   : UTF-8
    Codec ID                                 : S_TEXT/UTF8
    Codec ID/Info                            : UTF-8 Plain Text
    Title                                    : Russian
    Language                                 : Russian
    Default                                  : No
    Forced                                   : No

    Text #3
    ID                                       : 8
    Format                                   : UTF-8
    Codec ID                                 : S_TEXT/UTF8
    Codec ID/Info                            : UTF-8 Plain Text
    Title                                    : Russian (Forced)
    Language                                 : Russian
    Default                                  : Yes
    Forced                                   : No

    Menu
    00:00:00.000                             : en:00:00:00.000
    00:10:36.427                             : en:00:10:36.427
    00:20:13.587                             : en:00:20:13.587
    00:29:26.264                             : en:00:29:26.264
    00:40:52.116                             : en:00:40:52.116
    00:49:37.891                             : en:00:49:37.891
    00:59:26.479                             : en:00:59:26.479
    01:10:27.765                             : en:01:10:27.765
    01:20:48.969                             : en:01:20:48.969
    01:29:52.929                             : en:01:29:52.929
    01:40:37.990                             : en:01:40:37.990
    01:49:25.892                             : en:01:49:25.892
    01:58:26.641                             : en:01:58:26.641
    02:11:00.352                             : en:02:11:00.352

    x264 [info]: frame I:1596 Avg QP:14.35 size: 99990
    x264 [info]: frame P:42003 Avg QP:17.22 size: 35223
    x264 [info]: frame B:153322 Avg QP:19.40 size: 12393
    pb.wtf



    Скачать Дж. Эдгар через торрент http://i71.fastpic.ru/big/2015/0712/c8/c8c5ab2424a99b1a920da40b5401fec8.png Скачать фильм Дж. Эдгар через торрент бесплантно в хорошем качестве Описание:В течение всей жизни Джон Эдгар Гувер поднимался к вершинам власти, чтобы стать самым могущественным человеком в Америке. Будучи ... 9.8 10 5
    Info! Золотая раздача, скачанное не засчитывается.
    Торрент: Зарегистрирован [2015-07-12 07:21] · скачан: 117 раз
    Статус: √ проверено
    Размер: 5.75 GB
    Как cкачать? Как скачать Дж. Эдгар через торрент | qTorrent

    28-11-2019 20:33  

    Отключить всю рекламу на сайте

      Дорогой пользователь! Огромная просьба, поблагодарите релизера, оцените раздачу и оставьте свои комментарий, если Вы скачали Дж. Эдгар через торрент бесплатно! Внесите свою лепту в развитие PiratBit!
      Комментировать посты могут только пользователи прошедшие не сложную регистрацию
      Показать сообщения:    

      Дж. Эдгар через торрент
      Скачать бесплатно Дж. Эдгар
      Дж. Эдгар скачать торрент
      Дж. Эдгар смотреть онлайн
      Cкачать фильм Дж. Эдгар бесплатно
      Дж. Эдгар скачать торрент в хорошем качестве
      Дж. Эдгар смотреть онлайн бесплатно в хорошем качестве


      Вы не можете начинать темы
      Вы не можете отвечать на сообщения
      Вы не можете редактировать свои сообщения
      Вы не можете удалять свои сообщения
      Вы не можете голосовать в опросах
      Вы не можете прикреплять файлы к сообщениям
      Вы можете скачивать файлы