новый адрес
Ссылка на приватное зеркало всего за 1$. Внимание количество ограничено!!!

iTunes

1+1

iTunes

мы

WEB-DL

1

iTunes

Чернобыль

iTunes

Ральф против интернета

Лицензия

ПШазам

Лицензия

Оно 2

Лицензия

30
pack

Вам бонус

ВАЖНО

!!Акция!!

Alien_RageХит недели

RePack

Resident Evil 21

ИГРА 18+

pack

RePack

jed

!!Акция!!

Alien_Rage

RePack

fifa19

RePack

Assassins Creed: Odyssey

RePack

NEED FOR SPEED™ PAYBACK

3 сезон

9 сезон

Бесстыжие 9 сезон

Все сериалы

все сериалы на PB.wtf

RePack

FAR CRY 5
Ребята, катастрофически не хватает 1900р. для оплаты серверов за Октябрь (всвязи с блокировками трафик упал в 3 раза), 1-2р., выручайте.
  

Долгая дорога в дюнах (1-7 серия из 7) (Алоиз Бренч) [1980, Военный, Драма, Семейный, DVDRip, AVC] pb.wtf

Долгая дорога в дюнах через торрент pb.wtf

Раздают: 1 [ 0 KB/s ]
Размер: 6.26 GB | Добавлен: 4 года 5 мес. назад | Торрент скачан:71 раз
Скачать  

12-07-2015 10:28 Долгая дорога в дюнах Скачать торрент  

Долгая дорога в дюнах Жанр: Военный, Драма, Семейный
Год выпуска: 1980
Выпущено: СССР, Рижская киностудия
Продолжительность: 01:14:45 + 01:15:22 + 01:03:22 + 01:12:46 + 01:07:15 + 01:07:56 + 01:08:36

Режиссёр: Алоиз Бренч

В ролях: Лилита Озолиня, Юозас Киселюс, Ромуальдас Раманаускас, Эдуардс Павулс, Арийс Гейкинс, Лидия Фреймане, Карлис Тренцис, Ааре Лаанеметс, Индра Бурковска, Артурс Калейс, Дзидра Ритенберга, Эгонс Бесерис, Валдемарс Зандбергс, Мартыньш Вердыньш, Роландс Загорскис, Волдемар Шориньш, Мерле Тальвик, Улдис Ваздикс, Паул Буткевич, Улдис Думпис, Харийс Лиепиньш, Улдис Лиелдидж, Арнис Лицитис, Янис Плесумс, Гиртс Яковлевс, Иван Рыжов, Любовь Соколова, Людмила Чурсина, Владислав Ковальков, Велта Лине, Евгений Жариков, Юрий Гусев, Станислав Коренев, Майя Блинова, Николай Крюков, Янис Екабсонс, Андрейс Жагарс, Юрис Леяскалнс, Янис Зариньш, Юрис Плявиньш, Миервалдис Озолиньш

Описание: Действие фильма происходит в Латвии и охватывает период с 1939г. до наших дней. События, происходившие в стране, по-разному повлияли на судьбы героев. Но всех их вела по жизни любовь — разбрасывала и собирала, заставляла жестоко страдать и делала самыми счастливыми в мире… История любви Артура, сына рыбака, и Марты Озолс, которые пронесли свое чувство через все трудности и горести военных и послевоенных лет.



Качество видео: DVDRip
Формат видео: MKV
Видео кодек: H.264
Аудио кодек: AC3
Видео: MPEG4 Video (H264), 720x544, 25fps,2026 Kbps,bit/pixel 0.183
Аудио: AC3 48000Hz, stereo, 192kbps,6 ch
Общее
Уникальный идентификатор : 238083203644153886107879347347913630821 (0xB31D2838B6DE71389DF1FAC4101EE465)
Полное имя : D:\Долгая дорога в дюнах\01 серия.mkv
Формат : Matroska
Версия формата : Version 2
Размер файла : 1,06 Гбайт
Продолжительность : 1 ч. 14 м.
Общий поток : 2026 Кбит/сек
Дата кодирования : UTC 2015-07-09 04:24:07
Программа кодирования : mkvmerge v6.1.0 ('Old Devil') built on Mar 4 2013 09:10:42
Библиотека кодирования : libebml v1.3.0 + libmatroska v1.4.0

Видео
Идентификатор : 1
Формат : AVC
Формат/Информация : Advanced Video Codec
Профиль формата : High@L4.1
Параметр CABAC формата : Да
Параметр ReFrames формата : 9 кадров
Идентификатор кодека : V_MPEG4/ISO/AVC
Продолжительность : 1 ч. 14 м.
Битрейт : 1794 Кбит/сек
Ширина : 720 пикселей
Высота : 544 пикселя
Соотношение сторон : 4:3
Режим частоты кадров : Постоянный
Частота кадров : 25,000 кадров/сек
Цветовое пространство : YUV
Субдискретизация насыщенности : 4:2:0
Битовая глубина : 8 бит
Тип развёртки : Прогрессивная
Бит/(Пиксели*Кадры) : 0.183
Размер потока : 959 Мбайт (89%)
Библиотека кодирования : x264 core 130 r2273 b3065e6
Настройки программы : cabac=1 / ref=9 / deblock=1:2:2 / analyse=0x3:0x133 / me=umh / subme=9 / psy=1 / psy_rd=1.00:0.00 / mixed_ref=1 / me_range=24 / chroma_me=1 / trellis=2 / 8x8dct=1 / cqm=0 / deadzone=21,11 / fast_pskip=0 / chroma_qp_offset=-2 / threads=2 / lookahead_threads=4 / sliced_threads=0 / nr=0 / decimate=1 / interlaced=0 / bluray_compat=0 / constrained_intra=0 / bframes=9 / b_pyramid=2 / b_adapt=2 / b_bias=0 / direct=1 / weightb=1 / open_gop=0 / weightp=2 / keyint=250 / keyint_min=25 / scenecut=40 / intra_refresh=0 / rc_lookahead=60 / rc=crf / mbtree=1 / crf=18.0 / qcomp=0.60 / qpmin=0 / qpmax=69 / qpstep=4 / ip_ratio=1.40 / aq=1:1.00
Default : Да
Forced : Нет
Цветовой диапазон : Limited
Основные цвета : BT.601 PAL
Характеристики трансфера : BT.470 System B, BT.470 System G
Коэффициенты матрицы : BT.601

Аудио
Идентификатор : 2
Формат : AC-3
Формат/Информация : Audio Coding 3
Расширение режима : CM (complete main)
Параметр Endianness формата : Big
Идентификатор кодека : A_AC3
Продолжительность : 1 ч. 14 м.
Вид битрейта : Постоянный
Битрейт : 192 Кбит/сек
Каналы : 6 каналов
Расположение каналов : Front: L C R, Side: L R, LFE
Частота : 48,0 КГц
Метод сжатия : С потерями
Размер потока : 103 Мбайт (9%)
Default : Да
Forced : Нет
pb.wtf



Скачать Долгая дорога в дюнах через торрент http://i70.fastpic.ru/big/2015/0712/9c/b09595f61655e443c28b60a7c886d29c.jpg Скачать фильм Долгая дорога в дюнах через торрент бесплантно в хорошем качестве Описание: Действие фильма происходит в Латвии и охватывает период с 1939г. до наших дней. События, происходившие в стране, по-разному ... 9.2 10 5
Торрент: Зарегистрирован [2015-07-12 10:28] · скачан: 71 раз
Статус: √ проверено
Размер: 6.26 GB
Как cкачать? Как скачать Долгая дорога в дюнах через торрент | qTorrent

28-11-2019 20:33  

Отключить всю рекламу на сайте

    Дорогой пользователь! Огромная просьба, поблагодарите релизера, оцените раздачу и оставьте свои комментарий, если Вы скачали Долгая дорога в дюнах через торрент бесплатно! Внесите свою лепту в развитие PiratBit!
    Комментировать посты могут только пользователи прошедшие не сложную регистрацию
    Показать сообщения:    

    Долгая дорога в дюнах через торрент
    Скачать бесплатно Долгая дорога в дюнах
    Долгая дорога в дюнах скачать торрент
    Долгая дорога в дюнах смотреть онлайн
    Cкачать фильм Долгая дорога в дюнах бесплатно
    Долгая дорога в дюнах скачать торрент в хорошем качестве
    Долгая дорога в дюнах смотреть онлайн бесплатно в хорошем качестве


    Вы не можете начинать темы
    Вы не можете отвечать на сообщения
    Вы не можете редактировать свои сообщения
    Вы не можете удалять свои сообщения
    Вы не можете голосовать в опросах
    Вы не можете прикреплять файлы к сообщениям
    Вы можете скачивать файлы