Ссылка на приватное зеркало всего за 1$. Внимание количество ограничено!!!

iTunes

iTunes

iTunes

1

iTunes

iTunes

iTunes

iTunes

iTunes

30
pack

$ от Little Big

ВАЖНО

!!Акция!!

Alien_RageХит недели

RePack

Resident Evil 21

ИГРА 18+

pack

RePack

jed

!!Акция!!

Alien_Rage

RePack

fifa19

RePack

Assassins Creed: Odyssey

RePack

NEED FOR SPEED™ PAYBACK

4 сезон

9 сезон

Бесстыжие 9 сезон

Все сериалы

все сериалы на PB.wtf

RePack

FAR CRY 5
  

Бен Гур / Ben-Hur (Уильям Уайлер / William Wyler) [1959 г., Исторический, боевик, мелодрама, драма, приключения, HDTV] [1080i] MVO+ORG+Sub pb.wtf

Бен Гур через торрент pb.wtf

Размер: 13.58 GB | Добавлен: 10 лет назад | Торрент скачан:72 раза
Скачать  

27-06-2010 03:42 Бен Гур Скачать торрент  

Бен-Гур / Ben-Hur

Год выпуска: 1959
Страна: США
Жанр: Исторический, боевик, мелодрама, драма, приключения
Продолжительность: 03:22:58
Перевод: Профессиональный (многоголосый, закадровый с DVD-издания SomeWax)
Русские субтитры: есть

Режиссер: Уильям Уайлер / William Wyler
Продюссер: Сэм Цимбалист, Уильям Уайлер
Сценарий: Лью Уоллес, Карл Танберг, Максвелл Андерсон

Бюджет: $15 000 000
Премьера в мире: 18 ноября 1959

G
-Нет возрастных ограничений
Мировой рейтинг IMDB 8.20 (55 061)


В ролях: Чарлтон Хестон, Джек Хоукинс, Хайя Харарит, Стивен Бойд, Хью Гриффит, Марта Скотт, Кэти О`Доннелл, Сэм Джаффе, Финлэй Карри, Фрэнк Три

Описание: Действие фильма начинается в Палестине в 26 году от Рождества Христова. Два друга, еврей Бен Гур и римлянин Мессала, встречаются после долгой разлуки взрослыми людьми и понимают, что дружба уже невозможна. Иуда сочувствует борьбе своего народа за освобождение, а Мессала — трибун римского легиона — стоит на страже интересов Империи и требует, чтобы тот предал своих соотечественников. Во время приветственного парада с крыши дома Гуров случайно падает черепица и едва не убивает римского наместника. Хотя Мессала знает, что они не виновны, он посылает Иуду на галеры и бросает его мать и сестру в тюрьму. Но Иуда клянется вернуться и отомстить… Заключение, галеры, сражения, морские битвы и путешествия, эпизоды, связанные с зарождением христианства, - все вышеназванное присутствует в удивительно зрелищном фильме, получившем 11 Оскаров. Гонки на колесницах считаются самой захватывающей сценой в истории кинематографа
Трейлера с дубляжом или закадровым русским языком не нашел, но и так впечатляет!

General
ID : 1
Complete name : G:\HD\Ben-Hur.1959.DVB.HDTV.1080i.SkyScreen1HD.[satnews]\1959.Ben-Hur.DVB.HDTV.1080i.SkyScreen1HD.[satnews]\BDMV\STREAM\00000.m2ts
Format : BDAV
Format/Info : Blu-ray Video
File size : 13.6 GiB
Duration : 3h 22mn
Overall bit rate : 9 576 Kbps
Maximum Overall bit rate : 35.5 Mbps

Video
ID : 4113 (0x1011)
Menu ID : 1 (0x1)
Format : AVC
Format/Info : Advanced Video Codec
Format profile : Main@L4.0
Format settings, CABAC : Yes
Format settings, ReFrames : 4 frames
Duration : 3h 22mn
Bit rate : 8 416 Kbps
Width : 1 920 pixels
Height : 1 080 pixels
Display aspect ratio : 16:9
Frame rate : 25.000 fps
Resolution : 8 bits
Colorimetry : 4:2:0
Scan type : Interlaced
Scan order : Top Field First
Bits/(Pixel*Frame) : 0.162
Stream size : 11.9 GiB (88%)
Color primaries : BT.709-5, BT.1361, IEC 61966-2-4, SMPTE RP177
Transfer characteristics : BT.709-5, BT.1361
Matrix coefficients : BT.709-5, BT.1361, IEC 61966-2-4 709, SMPTE RP177

Audio #1
ID : 4352 (0x1100)
Menu ID : 1 (0x1)
Format : AC-3
Format/Info : Audio Coding 3
Duration : 3h 22mn
Bit rate mode : Constant
Bit rate : 384 Kbps
Channel(s) : 6 channels
Channel positions : Front: L C R, Surround: L R, LFE
Sampling rate : 48.0 KHz
Video delay : 12ms
Stream size : 558 MiB (4%)
Language : Russian / /

Audio #2
ID : 4353 (0x1101)
Menu ID : 1 (0x1)
Format : AC-3
Format/Info : Audio Coding 3
Duration : 3h 22mn
Bit rate mode : Constant
Bit rate : 384 Kbps
Channel(s) : 6 channels
Channel positions : Front: L C R, Surround: L R, LFE
Sampling rate : 48.0 KHz
Video delay : 12ms
Stream size : 558 MiB (4%)
Language : English / /

Text
ID : 4608 (0x1200)
Menu ID : 1 (0x1)
Format : PGS
Video delay : 19s 452ms
Language : Russian / /
[свернуть]
Скриншоты
Релиз от:

Коррекция дорожек и субтитров:

Качество: HDTV
Формат: BDAV
Видео кодек: H.264
Аудио кодек: AC3
Видео: H.264/AVC/1080i Video 1920x1088 (1920x1080) 25.000 fps 8 416 Kbps
Аудио: Russian/English - AC3: 3/2.1: L, C, R, SL, SR, LFE 48KHz 384Kbit/s
Теперь в МОИХ РАЗДАЧАХ ® "море СЕРЕБРА и ЗОЛОТА", соответственно засчитывается
либо половина закаченного
(СЕРЕБРО), либо вообще не идет в зачет скаченное (ЗОЛОТО)!




pb.wtf



Скачать Бен Гур через торрент http://i7.fastpic.ru/big/2010/0627/b7/d91edbf7ff5b5f969ab82a5f8244d7b7.jpg Скачать фильм Бен Гур через торрент бесплантно в хорошем качестве Описание: Действие фильма начинается в Палестине в 26 году от Рождества Христова. Два друга, еврей Бен Гур и римлянин Мессала, встречаются ... 10 10 1
Info! Золотая раздача, скачанное не засчитывается.
Торрент: Зарегистрирован [2010-06-27 03:42] · скачан: 72 раз
Статус: √ проверено
Размер: 13.58 GB
Как cкачать? Как скачать Бен Гур через торрент | qTorrent



Последний раз редактировалось: EXEBET (2010-06-29 21:03), всего редактировалось 2 раз(а)

28-11-2019 20:33  

Отключить всю рекламу на сайте

27-06-2010 21:46 Бен Гур Скачать торрент  

сейчас всего в DHT сети:

сидов: 21
личеров: 5pb.wtf



13-02-2011 16:36 Бен Гур Скачать торрент  

раздаиу 24 чеса... но не могу скачат...pb.wtf



    Дорогой пользователь! Огромная просьба, поблагодарите релизера, оцените раздачу и оставьте свои комментарий, если Вы скачали Бен Гур через торрент бесплатно! Внесите свою лепту в развитие PiratBit!
    Комментировать посты могут только пользователи прошедшие не сложную регистрацию
    Показать сообщения:    

    Бен Гур через торрент
    Скачать бесплатно Бен Гур
    Бен Гур скачать торрент
    Бен Гур смотреть онлайн
    Cкачать фильм Бен Гур бесплатно
    Бен Гур скачать торрент в хорошем качестве
    Бен Гур смотреть онлайн бесплатно в хорошем качестве


    Вы не можете начинать темы
    Вы не можете отвечать на сообщения
    Вы не можете редактировать свои сообщения
    Вы не можете удалять свои сообщения
    Вы не можете голосовать в опросах
    Вы не можете прикреплять файлы к сообщениям
    Вы можете скачивать файлы