новый адрес
Ссылка на приватное зеркало всего за 1$. Внимание количество ограничено!!!

iTunes

1+1

iTunes

мы

iTunes

1

iTunes

Чернобыль

iTunes

Ральф против интернета

Лицензия

ПШазам

Лицензия

Оно 2

Лицензия

30
pack

Вам бонус

ВАЖНО

!!Акция!!

Alien_RageХит недели

RePack

Resident Evil 21

ИГРА 18+

pack

RePack

jed

!!Акция!!

Alien_Rage

RePack

fifa19

RePack

Assassins Creed: Odyssey

RePack

NEED FOR SPEED™ PAYBACK

3 сезон

9 сезон

Бесстыжие 9 сезон

Все сериалы

все сериалы на PB.wtf

RePack

FAR CRY 5
Ребята, катастрофически не хватает 1900р. для оплаты серверов за Октябрь (всвязи с блокировками трафик упал в 3 раза), 1-2р., выручайте.
  

Сельская учительница (Марк Донской) [1947, CCCP, драма, DVDRip от AVP Studio] pb.wtf

Сельская учительница через торрент pb.wtf

Размер: 1.46 GB | Добавлен: 4 года 4 мес. назад | Торрент скачан:9 раз
Скачать  

12-07-2015 13:08 Сельская учительница Скачать торрент  

Сельская учительница
Страна: СССР
Производство: Союздетфильм

Жанр: драма
Год выпуска: 1947
Продолжительность: 01:38:16

Перевод: Не требуется
Cубтитры: нет
Оригинальная аудиодорожка: русский

Режиссер: Марк Донской

В ролях:
Вера Марецкая, Даниил Сагал, Владимир Белокуров, Владимир Марута, Ростислав Плятт, Павел Оленев, Дмитрий Павлов, Анна Лисянская, Борис Рунге, Алексей Консовский, Надир Малишевский, Толя Ганичев, Александр Суснин, Федор Одиноков...

Описание:
Канун Первой мировой войны. Окончив гимназию в Петербурге, Варя едет учить крестьянских детей. Сурово встречает юную учительницу глухая деревня. Вскоре появляется отбывающий в Сибири знакомый Вари по Петербургу — большевик Мартынов. Варя выходит за него замуж. Революция. Мартынов погибает на посту комиссара, Варе же предстоят тяжелые испытания в борьбе с кулачеством.

Источник: DVD5 R5
Качество видео: DVDRip
Формат видео: AVI
Видео кодек: XviD
Аудио кодек: AC3
Видео: 688x512 (4:3), 25 fps, XviD ~ 1667 kbps avg, 0.189 bit/pixel
Аудио: 48 kHz, Dolby Digital AC3 5.1, 448 kbps

Раздача от:
Общее
Полное имя : Selskaya.uchitelnica.1947.DVDRip_[New-team]_by_AVP_Studio.avi
Формат : AVI
Формат/Информация : Audio Video Interleave
Размер файла : 1,46 Гбайт
Продолжительность : 1 ч. 38 м.
Общий поток : 2125 Кбит/сек
Программа кодирования : VirtualDubModRus 1.5.10.2 (build 2542/release)
Библиотека кодирования : VirtualDubMod build 2542/release

Видео
Идентификатор : 0
Формат : MPEG-4 Visual
Профиль формата : Advanced Simple@L5
Параметр BVOP формата : 1
Параметр QPel формата : Нет
Параметр GMC формата : Без точки перехода
Параметр матрицы формата : Выборочная
Идентификатор кодека : XVID
Идентификатор кодека/Подсказка : XviD
Продолжительность : 1 ч. 38 м.
Битрейт : 1667 Кбит/сек
Ширина : 688 пикселей
Высота : 512 пикселей
Соотношение сторон : 4:3
Частота кадров : 25,000 кадров/сек
Цветовое пространство : YUV
Субдискретизация насыщенности : 4:2:0
Битовая глубина : 8 бит
Тип развёртки : Прогрессивная
Метод сжатия : С потерями
Бит/(Пиксели*Кадры) : 0.189
Размер потока : 1,14 Гбайт (78%)
Библиотека кодирования : XviD 73

Аудио
Идентификатор : 1
Формат : AC-3
Формат/Информация : Audio Coding 3
Расширение режима : CM (complete main)
Параметр Endianness формата : Big
Идентификатор кодека : 2000
Продолжительность : 1 ч. 38 м.
Вид битрейта : Постоянный
Битрейт : 448 Кбит/сек
Каналы : 6 каналов
Расположение каналов : Front: L C R, Side: L R, LFE
Частота : 48,0 КГц
Битовая глубина : 16 бит
Метод сжатия : С потерями
Задержка видео : 480 мс.
Размер потока : 315 Мбайт (21%)
Выравнивание : Разделение по промежуткам
Продолжительность промежутка : 40 мс. (1,00 видеокадр)
Время предзагрузки промежутка : 500 мс
pb.wtf



Скачать Сельская учительница через торрент http://s019.radikal.ru/i632/1507/77/aeb120bb9a21.png Скачать фильм Сельская учительница через торрент бесплантно в хорошем качестве Описание:Канун Первой мировой войны. Окончив гимназию в Петербурге, Варя едет учить крестьянских детей. Сурово встречает юную учительницу ... 10 10 2
Торрент: Зарегистрирован [2015-07-12 13:08] · скачан: 9 раз
Статус: √ проверено
Размер: 1.46 GB
Как cкачать? Как скачать Сельская учительница через торрент | qTorrent

% Раздел Тема Автор DL S | L
Кино СССР [ 1.46 GB ] Сельская учительница [1947 CCCP DVDRip-AVC от AVP Studio] AVP Studio Скачать
1 | 0
Кино СССР [ 745 MB ] Сельская учительница [1947 CCCP DVDRip от AVP Studio] AVP Studio Скачать
1 | 0
    Дорогой пользователь! Огромная просьба, поблагодарите релизера, оцените раздачу и оставьте свои комментарий, если Вы скачали Сельская учительница через торрент бесплатно! Внесите свою лепту в развитие PiratBit!
    Комментировать посты могут только пользователи прошедшие не сложную регистрацию
    Показать сообщения:    

    Сельская учительница через торрент
    Скачать бесплатно Сельская учительница
    Сельская учительница скачать торрент
    Сельская учительница смотреть онлайн
    Cкачать фильм Сельская учительница бесплатно
    Сельская учительница скачать торрент в хорошем качестве
    Сельская учительница смотреть онлайн бесплатно в хорошем качестве


    Вы не можете начинать темы
    Вы не можете отвечать на сообщения
    Вы не можете редактировать свои сообщения
    Вы не можете удалять свои сообщения
    Вы не можете голосовать в опросах
    Вы не можете прикреплять файлы к сообщениям
    Вы можете скачивать файлы