Достать ножи: Стеклянная луковица

MVO

Добыча

Дубляж

Уэнсдэй

1 сезон

Тор

Дубляж

13 клиническая

1 сезон

Жестокая ночь

MVO

Одни из нас

1 сезон

Deluxe

pack

Рекомендуем

30

Пиратка

ВАЖНО

ВАЖНО

Ghostwire

Пиратка

jed

RePack

nioh2

RePack

RDR2

RePack

NEED FOR SPEED™ PAYBACK

RePack

скачать торрент

Кинопоиск HD

Острые козырьки 6 сезон

6 сезон

FAR CRY 6

RePack

скачать торрент

Лицензия

скачать торрент

MVO

1

1 сезон

скачать торрент

1 сезон

скачать торрент

Лицензия

  

Прости за любовь / Perdona si te llamo amor (Хоакин Льямас) [2014 г., мелодрама, HDRip, Дубляж]

Прости за любовь через торрент pb.wtf

Размер: 2.14 GB | Добавлен: 7 лет 6 мес. назад | Торрент скачан:89 раз
Смотреть онлайн | Скачать | Поддержите нас   

12-07-2015 18:17 Прости за любовь Скачать торрент  

Прости за любовь / Perdona si te llamo amor
Год выпуска: 2014
Страна: Испания / Audiovisual Aval SGR, Canal+ España, Institut Català de les Empreses Culturals (ICEC)
Жанр: мелодрама
Продолжительность: 01:59:56
Перевод: Дубляж

Режиссер: Хоакин Льямас

IMDB 6.50 (793)


В ролях: Палома Блойд, Даниэле Лиотти, Ирена Монтала, Патриция Вико, Хайме Пухоль, Пабло Чьяпелья, Адрия Кольядо, Хорди Рико, Лусия Дельгадо, Лусия Герерро, Анастасия Лапина, Александр Гаврилин, Ольга Голованова, Исмаил Зиядзаде, Инга Сметанина

Описание: Спокойный представительный Алекс знакомится со взбалмошной Никки. Несмотря на то, что они полные противоположности и постоянно ссорятся, Алекс и Никки начинают встречаться. Но проблема не только в непохожих характерах, главная заминка в 20-летней разнице в возрасте — ему 37, а ей 17.

Качество: HDRip
Формат: AVI
Видео кодек: XviD
Аудио кодек: AC3
Видео: 720x304 (2.37:1), 24.000 fps, XviD build 50 ~2158 kbps avg, 0.41 bit/pixel
Аудио: 48 kHz, AC3 Dolby Digital, 3/2 (L,C,R,l,r) + LFE ch, ~384 kbps

Общее
Полное имя : F:\кино\Прости за любовь.2014.HDRip.avi
Формат : AVI
Формат/Информация : Audio Video Interleave
Профиль формата : OpenDML
Размер файла : 2,14 Гбайт
Продолжительность : 1 ч. 59 м.
Общий поток : 2549 Кбит/сек
Программа кодирования : VirtualDubMod 1.5.10.3 | www.virtualdub-fr.org || (build 2550/release)
Библиотека кодирования : VirtualDubMod build 2550/release

Видео
Идентификатор : 0
Формат : MPEG-4 Visual
Профиль формата : Advanced [email protected]
Параметр BVOP формата : 3
Параметр QPel формата : Да
Параметр GMC формата : 3 точки перехода
Параметр матрицы формата : Default (H.263)
Идентификатор кодека : XVID
Идентификатор кодека/Подсказка : XviD
Продолжительность : 1 ч. 59 м.
Битрейт : 2154 Кбит/сек
Ширина : 720 пикселей
Высота : 304 пикселя
Соотношение сторон : 2,35:1
Частота кадров : 24,000 кадра/сек
Цветовое пространство : YUV
Субдискретизация насыщенности : 4:2:0
Битовая глубина : 8 бит
Тип развёртки : Прогрессивная
Метод сжатия : С потерями
Бит/(Пиксели*Кадры) : 0.410
Размер потока : 1,80 Гбайт (84%)
Библиотека кодирования : XviD 1.2.1 (UTC 2008-12-04)

Аудио
Идентификатор : 1
Формат : AC-3
Формат/Информация : Audio Coding 3
Расширение режима : CM (complete main)
Параметр Endianness формата : Big
Идентификатор кодека : 2000
Продолжительность : 1 ч. 59 м.
Вид битрейта : Постоянный
Битрейт : 384 Кбит/сек
Каналы : 6 каналов
Расположение каналов : Front: L C R, Side: L R, LFE
Частота : 48,0 КГц
Метод сжатия : С потерями
Размер потока : 329 Мбайт (15%)
Выравнивание : Разделение по промежуткам
Продолжительность промежутка : 42 мс. (1,00 видеокадр)
Время предзагрузки промежутка : 500 мс.




Скачать Прости за любовь через торрент https://pic1.kartinco.top/images/10/sljvh.jpg Скачать, смотреть онлайн Прости за любовь бесплантно в хорошем качестве Описание: Спокойный представительный Алекс знакомится со взбалмошной Никки. Несмотря на то, что они полные противоположности и постоянно ... 9 10 10
Торрент: Зарегистрирован [2015-07-12 18:17] · скачан: 89 раз
Статус: √ проверено
Размер: 2.14 GB
Как cкачать? Как скачать Прости за любовь через торрент | UTorrent

% Раздел Тема Автор DL S | L
Фильмы [HD 720p, 1080p] (Хороший звук DUB, MVO) [ 5.72 GB ] Прости за любовь / Perdona si te llamo amor | | 720p, Dub, Чистый звук alaray999 Скачать
1 | 0
T Фильмы 2014 [DVDrip, WEB-DLRip, HDrip] [ 1.46 GB ] Прости за любовь / Perdona si te llamo amor | DUB Чистый звук | HDRip |DUB Чистый звук Ворон Скачать
1 | 0
T Фильмы 2014 [DVDrip, WEB-DLRip, HDrip] [ 2.19 GB ] Прости за любовь / Perdona si te llamo amor | DUB Чистый звук | HDRip |DUB Чистый звук Ворон Скачать
1 | 0

28-11-2019 20:33  


Отключить вcю реклaмy на сайте, в т.ч. и в плеере онлайн просмотра!

13-07-2015 18:47 Прости за любовь Скачать торрент  

Если на постере одна из ГГ, то о каких 17 идет речь? Я бы за 40+ выдал не сомневаясь...



    Дорогой пользователь! Огромная просьба, поблагодарите релизера, оцените раздачу и оставьте свои комментарий, если Вы скачали Прости за любовь через торрент бесплатно!!
    Комментировать посты могут только пользователи прошедшие не сложную регистрацию
    Показать сообщения:    


    Прости за любовь через торрент
    Скачать бесплатно Прости за любовь
    Прости за любовь скачать торрент
    Прости за любовь смотреть онлайн
    Cкачать фильм Прости за любовь бесплатно
    Прости за любовь скачать торрент в хорошем качестве
    Прости за любовь смотреть онлайн бесплатно в хорошем качестве
    Вы не можете начинать темы
    Вы не можете отвечать на сообщения
    Вы не можете редактировать свои сообщения
    Вы не можете удалять свои сообщения
    Вы не можете голосовать в опросах
    Вы не можете прикреплять файлы к сообщениям
    Вы можете скачивать файлы
    Прости за любовь / Perdona si te llamo amor [2014 г., мелодрама, HDRip, Дубляж] смотреть онлайн, скачать торрент picoco.icu