Ссылка на приватное зеркало всего за 1$. Внимание количество ограничено!!!

iTunes

iTunes

iTunes

1

iTunes

iTunes

iTunes

iTunes

iTunes

30
pack

$ от Little Big

ВАЖНО

!!Акция!!

Alien_RageХит недели

RePack

Resident Evil 21

ИГРА 18+

pack

RePack

jed

!!Акция!!

Alien_Rage

RePack

fifa19

RePack

Assassins Creed: Odyssey

RePack

NEED FOR SPEED™ PAYBACK

4 сезон

9 сезон

Бесстыжие 9 сезон

Все сериалы

все сериалы на PB.wtf

RePack

FAR CRY 5
  

Убийство кота / Murder of a Cat (Джиллиан Грин) [2014, триллер, комедия,WEB-DL 720p] MVO pb.wtf

Убийство кота через торрент pb.wtf

Размер: 3.2 GB | Добавлен: 4 года 11 мес. назад | Торрент скачан:38 раз
Скачать  

12-07-2015 22:18 Убийство кота Скачать торрент  

Информация о фильме

Название: Убийство кота

Оригинальное название: Murder of a Cat

Год выхода: 2014

Жанр: триллер, комедия

Выпущено: США / Seine Pictures

Продолжительность: 01:41:08

Озвучивание: Профессиональное (многоголосое) [Официальный звук]

Субтитры: English

Режиссер: Джиллиан Грин

В ролях: Фрэн Кранц, Никки, Рид Дж.К. Симмонс, Блайт Даннер, Грег Киннер, Тед Рэйми, Леонардо Нам, Барт МакКарти, Дилип Рао, Дебра Кристофферсон

Описание: История о человеке, который расследует убийство своего кота.



Файл
Качество: WEB-DL 720p
Формат:MKV
Видео кодек: AVC
Аудио кодек: AC3
Видео: 3862 kb/s, 1280x718 , 23,976 fps
Аудио: Russian: AC3, 192 kb/s (2 ch) , 48.0 KHz
Аудио: English: AC3, 384 kb/s (6 ch), 48.0 KHz
Format : Matroska

Format version : Version 4 / Version 2

File size : 3.20 GiB

Duration : 1h 41mn

Overall bit rate : 4 528 Kbps

Encoded date : UTC 2015-07-12 21:16:19

Writing application : mkvmerge v6.1.0 ('Old Devil') built on Mar 4 2013 09:10:42

Writing library : libebml v1.3.0 + libmatroska v1.4.0

Video

ID : 1

Format : AVC

Format/Info : Advanced Video Codec

Format profile : High@L3.1

Format settings, CABAC : No

Format settings, ReFrames : 2 frames

Codec ID : V_MPEG4/ISO/AVC

Duration : 1h 41mn

Bit rate : 3 862 Kbps

Width : 1 280 pixels

Height : 718 pixels

Display aspect ratio : 16:9

Frame rate mode : Constant

Frame rate : 23.976 fps

Color space : YUV

Chroma subsampling : 4:2:0

Bit depth : 8 bits

Scan type : Progressive

Bits/(Pixel*Frame) : 0.175

Stream size : 2.73 GiB (85%)

Language : English

Default : Yes

Forced : No

Color range : Limited

Color primaries : BT.709

Transfer characteristics : BT.709

Matrix coefficients : BT.709

Audio #1

ID : 2

Format : AC-3

Format/Info : Audio Coding 3

Mode extension : CM (complete main)

Format settings, Endianness : Big

Codec ID : A_AC3

Duration : 1h 41mn

Bit rate mode : Constant

Bit rate : 192 Kbps

Channel(s) : 2 channels

Channel positions : Front: L R

Sampling rate : 48.0 KHz

Bit depth : 16 bits

Compression mode : Lossy

Stream size : 139 MiB (4%)

Language : Russian

Default : Yes

Forced : No

Audio #2

ID : 3

Format : AC-3

Format/Info : Audio Coding 3

Mode extension : CM (complete main)

Format settings, Endianness : Big

Codec ID : A_AC3

Duration : 1h 41mn

Bit rate mode : Constant

Bit rate : 384 Kbps

Channel(s) : 6 channels

Channel positions : Front: L C R, Side: L R, LFE

Sampling rate : 48.0 KHz

Bit depth : 16 bits

Compression mode : Lossy

Stream size : 278 MiB (8%)

Language : English

Default : No

Forced : No

Text

ID : 4

Format : UTF-8

Codec ID : S_TEXT/UTF8

Codec ID/Info : UTF-8 Plain Text

Language : English

Default : No

Forced : No

Menu

00:00:00.000 : en:Chapter 1

00:10:00.000 : en:Chapter 2

00:20:01.000 : en:Chapter 3

00:30:01.000 : en:Chapter 4

00:40:02.000 : en:Chapter 5

00:50:03.000 : en:Chapter 6

01:00:03.000 : en:Chapter 7

01:10:04.000 : en:Chapter 8

01:20:04.000 : en:Chapter 9

01:30:05.000 : en:Chapter 10
pb.wtf



Скачать Убийство кота через торрент http://i69.fastpic.ru/big/2015/0713/a8/cddbd2dcd11ff03a7a1407648dad9ca8.jpg Скачать фильм Убийство кота через торрент бесплантно в хорошем качестве Описание: История о человеке, который расследует убийство своего ... 10 10 3
Торрент: Зарегистрирован [2015-07-12 22:18] · скачан: 38 раз
Статус: √ проверено
Размер: 3.2 GB
Как cкачать? Как скачать Убийство кота через торрент | qTorrent

% Раздел Тема Автор DL S | L
Фильмы 2014 [DVDrip, WEB-DLRip, HDrip] [ 1.37 GB ] Убийство кота / Murder of a Cat [2014 WEB-DLRip] MVO Ворон Скачать
1 | 0

28-11-2019 20:33  

Отключить всю рекламу на сайте

13-07-2015 13:39 Убийство кота Скачать торрент  

описание просто поражает воображениеpb.wtf



    Дорогой пользователь! Огромная просьба, поблагодарите релизера, оцените раздачу и оставьте свои комментарий, если Вы скачали Убийство кота через торрент бесплатно! Внесите свою лепту в развитие PiratBit!
    Комментировать посты могут только пользователи прошедшие не сложную регистрацию
    Показать сообщения:    

    Убийство кота через торрент
    Скачать бесплатно Убийство кота
    Убийство кота скачать торрент
    Убийство кота смотреть онлайн
    Cкачать фильм Убийство кота бесплатно
    Убийство кота скачать торрент в хорошем качестве
    Убийство кота смотреть онлайн бесплатно в хорошем качестве


    Вы не можете начинать темы
    Вы не можете отвечать на сообщения
    Вы не можете редактировать свои сообщения
    Вы не можете удалять свои сообщения
    Вы не можете голосовать в опросах
    Вы не можете прикреплять файлы к сообщениям
    Вы можете скачивать файлы