Ссылка на приватное зеркало нашего сайта всего за 1$. Внимание количество ограничено!!!

2 сезон

iTunes

1 сезон

1

iTunes

iTunes

iTunes

1 сезон

RePack

30

ИГРА 18+

pack

ВАЖНО

!!Акция!!

Alien_RageХит недели

RePack

MK11
pack

Забери бонус

RePack

jed

!!Акция!!

Alien_Rage

RePack

fifa19

RePack

Assassins Creed: Odyssey

RePack

NEED FOR SPEED™ PAYBACK

4 сезон

9 сезон

Бесстыжие 9 сезон

Все сериалы

все сериалы на PB.wtf

RePack

FAR CRY 5
  

Крепись! (Этан Коэн) [2015, комедия, криминал, BDRip 720p, Профессиональный многоголосый [Лицензия / iTunes] pb.wtf

Крепись! через торрент pb.wtf

Размер: 5.25 GB | Добавлен: 5 лет 3 мес. назад | Торрент скачан:454 раза
Скачать  

12-07-2015 23:17 Крепись! Скачать торрент  


Крепись!
««An education in incarceration»»

ИНФОРМАЦИЯ:
Год выпуска:2015
Страна: США
Жанр: комедия, криминал
Продолжительность: 01:40:18
Перевод: Профессиональный многоголосый [Лицензия / iTunes]
Режиссер: Этан Коэн

В Ролях:


Уилл Феррелл (James), Кевин Харт (Darnell), Крэйг Т. Нельсон (Martin), Элисон Бри (Alissa), Эдвина Финдли (Rita), Ариана Нил (Makayla), Эрик Чаварриа (Cecelio), Ти-Ай (Russell), Пол Бен-Виктор (Gayle), Джон Майер (John Mayer), Джон Эйз (Big Mike), Нито Лариоза (Jaoa)

Описание:
Богатый менеджер инвестиционного банка осуждён за преступление, которого он не совершал, и готовится к тюрьме. А помогает ему в этом парень, который моет его машину.

  • Мировая премьера:16 марта 2015

    ТЕХ.ДАННЫЕ:
    Качество: BDRip 720p
    Формат: MKV
    Видео кодек: AVC
    Аудио кодек: AC3, DTS
    Видео: AVC, 1280x720 (16:9), 5596 kbps, 23,976 fps, 0,253 bpp
    Аудио №1: русский / AC3 / 5.1 / 48 kHz / 384 kbps / 16 bit ||
    Аудио №2: английский / DTS / 5.1 / 48 kHz / 1510 kbps / 24 bit


    Код:

    General
    Unique ID                                : 204609418697450816596378822412243845948 (0x99EE573401B447C7B69F45808F90433C)
    Complete name                            : D:\Торенты\KPep1C.2O15.P.BDRip.720p.mkv
    Format                                   : Matroska
    Format version                           : Version 4 / Version 2
    File size                                : 5.25 GiB
    Duration                                 : 1h 40mn
    Overall bit rate                         : 7 489 Kbps
    Encoded date                             : UTC 2015-07-12 20:52:58
    Writing application                      : mkvmerge v6.5.0 ('Isn't she lovely') built on Oct 20 2013 12:50:05
    Writing library                          : libebml v1.3.0 + libmatroska v1.4.1

    Video
    ID                                       : 1
    Format                                   : AVC
    Format/Info                              : Advanced Video Codec
    Format profile                           : High@L4.1
    Format settings, CABAC                   : Yes
    Format settings, ReFrames                : 8 frames
    Codec ID                                 : V_MPEG4/ISO/AVC
    Duration                                 : 1h 40mn
    Bit rate                                 : 5 596 Kbps
    Width                                    : 1 280 pixels
    Height                                   : 720 pixels
    Display aspect ratio                     : 16:9
    Frame rate mode                          : Variable
    Frame rate                               : 23.976 fps
    Color space                              : YUV
    Chroma subsampling                       : 4:2:0
    Bit depth                                : 8 bits
    Scan type                                : Progressive
    Bits/(Pixel*Frame)                       : 0.253
    Stream size                              : 3.82 GiB (73%)
    Writing library                          : x264 core 130 r2273 b3065e6
    Encoding settings                        : cabac=1 / ref=8 / deblock=1:-1:-1 / analyse=0x3:0x113 / me=umh / subme=7 / psy=1 / psy_rd=1.00:0.00 / mixed_ref=1 / me_range=24 / chroma_me=1 / trellis=2 / 8x8dct=1 / cqm=0 / deadzone=21,11 / fast_pskip=1 / chroma_qp_offset=-2 / threads=12 / lookahead_threads=3 / sliced_threads=0 / nr=0 / decimate=1 / interlaced=0 / bluray_compat=0 / constrained_intra=0 / bframes=6 / b_pyramid=2 / b_adapt=2 / b_bias=0 / direct=3 / weightb=1 / open_gop=0 / weightp=2 / keyint=240 / keyint_min=24 / scenecut=40 / intra_refresh=0 / rc_lookahead=40 / rc=2pass / mbtree=1 / bitrate=5596 / ratetol=1.0 / qcomp=0.60 / qpmin=0 / qpmax=69 / qpstep=4 / cplxblur=20.0 / qblur=0.5 / ip_ratio=1.40 / aq=1:1.00
    Language                                 : English
    Default                                  : Yes
    Forced                                   : No
    Color primaries                          : BT.709-5, BT.1361, IEC 61966-2-4, SMPTE RP177
    Transfer characteristics                 : BT.709-5, BT.1361
    Matrix coefficients                      : BT.709-5, BT.1361, IEC 61966-2-4 709, SMPTE RP177

    Audio #1
    ID                                       : 2
    Format                                   : AC-3
    Format/Info                              : Audio Coding 3
    Mode extension                           : CM (complete main)
    Codec ID                                 : A_AC3
    Duration                                 : 1h 40mn
    Bit rate mode                            : Constant
    Bit rate                                 : 384 Kbps
    Channel(s)                               : 6 channels
    Channel positions                        : Front: L C R, Side: L R, LFE
    Sampling rate                            : 48.0 KHz
    Bit depth                                : 16 bits
    Compression mode                         : Lossy
    Stream size                              : 276 MiB (5%)
    Language                                 : Russian
    Default                                  : Yes
    Forced                                   : No

    Audio #2
    ID                                       : 3
    Format                                   : DTS
    Format/Info                              : Digital Theater Systems
    Codec ID                                 : A_DTS
    Duration                                 : 1h 40mn
    Bit rate mode                            : Constant
    Bit rate                                 : 1 510 Kbps
    Channel(s)                               : 6 channels
    Channel positions                        : Front: L C R, Side: L R, LFE
    Sampling rate                            : 48.0 KHz
    Bit depth                                : 24 bits
    Compression mode                         : Lossy
    Stream size                              : 1.06 GiB (20%)
    Language                                 : English
    Default                                  : No
    Forced                                   : No

    Скриншоты:


    © Оформление by Ворон
    pb.wtf



  • Скачать Крепись! через торрент http://pic.kartinco.top/images/6/ordi9.jpg Скачать фильм Крепись! через торрент бесплантно в хорошем качестве Описание: Богатый менеджер инвестиционного банка осуждён за преступление, которого он не совершал, и готовится к тюрьме. А помогает ему в ... 9.9 10 9
    Торрент: Зарегистрирован [2015-07-12 23:17] · скачан: 454 раз
    Статус: T временная
    Размер: 5.25 GB
    Как cкачать? Как скачать Крепись! через торрент | qTorrent

    % Раздел Тема Автор DL S | L
    Ultra HD (UHD: 2K, 4K, 8K) — видео сверхвысокой чёткости [ 27.04 GB ] Крепись! / Get Hard [2015 UHD WEBRip 2160p] MVO [Театральная версия] bober100 Скачать
    1 | 0
    Фильмы 2015 [DVDrip, WEB-DLRip, HDrip] [ 1.42 GB ] Крепись! / Get Hard [2015 BDRip-AVC] [Театральная версия] MVO potroks Скачать
    18 | 1
    Фильмы 2015 [DVDrip, WEB-DLRip, HDrip] [ 700 MB ] Крепись! [2015 НDRip / ] Ворон Скачать
    1 | 0
    Фильмы 2015 [DVDrip, WEB-DLRip, HDrip] [ 1.41 GB ] Крепись! [2015 BDRip многоголосый [UNRATED] Twi7ter Скачать
    1 | 0
    Фильмы с авторской озвучкой [ 1.45 GB ] Крепись! [2015 HDRip Авторский / UNRATED / Яроцкий] Ворон Скачать
    1 | 0
    Фильмы 2015 [DVDrip, WEB-DLRip, HDrip] [ 1.45 GB ] Крепись! [2015 HDRip многоголосый Ворон Скачать
    1 | 0
    Фильмы без перевода [ 37.33 GB ] Крепись! [2015 BluRay 1080p] [ENG] [UNRATED] killermax2013 Скачать
    1 | 0

    28-11-2019 20:33  

    Отключить всю рекламу на сайте

      Дорогой пользователь! Огромная просьба, поблагодарите релизера, оцените раздачу и оставьте свои комментарий, если Вы скачали Крепись! через торрент бесплатно! Внесите свою лепту в развитие PiratBit!
      Комментировать посты могут только пользователи прошедшие не сложную регистрацию
      Показать сообщения:    

      Крепись! через торрент
      Скачать бесплатно Крепись!
      Крепись! скачать торрент
      Крепись! смотреть онлайн
      Cкачать фильм Крепись! бесплатно
      Крепись! скачать торрент в хорошем качестве
      Крепись! смотреть онлайн бесплатно в хорошем качестве


      Вы не можете начинать темы
      Вы не можете отвечать на сообщения
      Вы не можете редактировать свои сообщения
      Вы не можете удалять свои сообщения
      Вы не можете голосовать в опросах
      Вы не можете прикреплять файлы к сообщениям
      Вы можете скачивать файлы