Ссылка на приватное зеркало нашего сайта всего за 1$. Внимание количество ограничено!!!

2 сезон

iTunes

1 сезон

1

2 сезон

2 сезон

iTunes

1 сезон

RePack

30

Новинка

ВАЖНО

ИГРА 18+

pack

RePack

MK11
pack

Забери бонус

RePack

jed

!!Акция!!

Alien_Rage

RePack

fifa19

RePack

Assassins Creed: Odyssey

RePack

NEED FOR SPEED™ PAYBACK

4 сезон

9 сезон

Бесстыжие 9 сезон

Все сериалы

все сериалы на PB.wtf

RePack

FAR CRY 5
  

Пока мы молоды / While We're Young (Ноа Баумбак) [2014, драма, комедия, BDRip 720p, Любительский (двухголосый)[ColdFilm] pb.wtf

Пока мы молоды через торрент pb.wtf

Размер: 2.85 GB | Добавлен: 5 лет 4 мес. назад | Торрент скачан:105 раз
Скачать  

12-07-2015 23:33 Пока мы молоды Скачать торрент  


Пока мы молоды / While We're Young
««Life never gets old»»

ИНФОРМАЦИЯ:
Год выпуска:2014
Страна: США
Жанр: драма, комедия
Продолжительность: 01:37:32
Перевод: Любительский (двухголосый)
Режиссер: Ноа Баумбак

В Ролях:


Бен Стиллер (Josh), Наоми Уоттс (Cornelia), Адам Драйвер (Jamie), Аманда Сайфред (Darby), Чарльз Гродин (Leslie Breitbart), Адам Хоровиц (Fletcher), Мария Диззия (Marina), Дри Хемингуэй (Tipper), Брэйди Корбет (Kent), Мэттью Мехер (Tim), Питер Ярроу (Ira Mandelstam), Бонни Кауфман (Ira's Wife)

Описание:
Картина рассказывает о бездетной паре, которая начинает чувствовать отчуждение со стороны друзей, уже имеющих ребенка. В поисках нового круга общения они знакомятся с парнем и девушкой, с которыми у них, на первый взгляд, нет совершенно ничего общего.

  • Мировая премьера:6 сентября 2014

    ТЕХ.ДАННЫЕ:
    Качество: BDRip 720p
    Формат: MKV
    Видео кодек: MPEG-4 Visual ASP
    Аудио кодек: MP3
    Видео: MPEG-4 Visual ASP, 1280x704 (16:9), 3907 kbps, 23,976 fps, 0,181 bpp
    Аудио: MP3 / 2.0 / 44 kHz / 192 kbps /


    Код:

    General
    Unique ID                                : 206016087683235729770289548341254444570 (0x9AFD4156B7DD30E89A02DA409D2E561A)
    Complete name                            : D:\Торенты\While.Were.Young.2015.BDRip.ColdFilm.mkv
    Format                                   : Matroska
    Format version                           : Version 2
    File size                                : 2.85 GiB
    Duration                                 : 1h 37mn
    Overall bit rate                         : 4 183 Kbps
    Encoded date                             : UTC 2015-07-12 12:22:20
    Writing application                      : mkvmerge v3.3.0 ('Language') built on Mar 24 2010 14:59:24
    Writing library                          : libebml v0.8.0 + libmatroska v0.9.0

    Video
    ID                                       : 1
    Format                                   : MPEG-4 Visual
    Format profile                           : Simple@L1
    Format settings, BVOP                    : No
    Format settings, QPel                    : No
    Format settings, GMC                     : No warppoints
    Format settings, Matrix                  : Default (H.263)
    Codec ID                                 : V_MPEG4/ISO/ASP
    Codec ID/Info                            : Advanced Simple Profile
    Duration                                 : 1h 37mn
    Bit rate                                 : 3 908 Kbps
    Width                                    : 1 280 pixels
    Height                                   : 704 pixels
    Display aspect ratio                     : 16:9
    Frame rate                               : 23.976 fps
    Color space                              : YUV
    Chroma subsampling                       : 4:2:0
    Bit depth                                : 8 bits
    Scan type                                : Progressive
    Compression mode                         : Lossy
    Bits/(Pixel*Frame)                       : 0.181
    Stream size                              : 2.66 GiB (93%)
    Writing library                          : Lavc54.92.100
    Default                                  : No
    Forced                                   : No

    Audio
    ID                                       : 2
    Format                                   : MPEG Audio
    Format version                           : Version 1
    Format profile                           : Layer 3
    Codec ID                                 : A_MPEG/L3
    Codec ID/Hint                            : MP3
    Duration                                 : 1h 37mn
    Bit rate mode                            : Constant
    Bit rate                                 : 192 Kbps
    Channel(s)                               : 2 channels
    Sampling rate                            : 44.1 KHz
    Compression mode                         : Lossy
    Stream size                              : 134 MiB (5%)
    Default                                  : Yes
    Forced                                   : No

    Скриншоты:


    © Оформление by Ворон
    pb.wtf
    !Ворон писал(а):

    Временно сценовый рип....



  • Скачать Пока мы молоды через торрент http://pic.kartinco.top/images/6/ordi9.jpg Скачать фильм Пока мы молоды через торрент бесплантно в хорошем качестве Описание: Картина рассказывает о бездетной паре, которая начинает чувствовать отчуждение со стороны друзей, уже имеющих ребенка. В поисках ... 10 10 5
    Торрент: Зарегистрирован [2015-07-12 23:33] · скачан: 105 раз
    Статус: T временная
    Размер: 2.85 GB
    Как cкачать? Как скачать Пока мы молоды через торрент | qTorrent

    28-11-2019 20:33  

    Отключить всю рекламу на сайте

    14-07-2015 12:00 Пока мы молоды Скачать торрент  

    Спасибо Ворон, с интересом ждём финальный релиз.pb.wtf



      Дорогой пользователь! Огромная просьба, поблагодарите релизера, оцените раздачу и оставьте свои комментарий, если Вы скачали Пока мы молоды через торрент бесплатно! Внесите свою лепту в развитие PiratBit!
      Комментировать посты могут только пользователи прошедшие не сложную регистрацию
      Показать сообщения:    

      Пока мы молоды через торрент
      Скачать бесплатно Пока мы молоды
      Пока мы молоды скачать торрент
      Пока мы молоды смотреть онлайн
      Cкачать фильм Пока мы молоды бесплатно
      Пока мы молоды скачать торрент в хорошем качестве
      Пока мы молоды смотреть онлайн бесплатно в хорошем качестве


      Вы не можете начинать темы
      Вы не можете отвечать на сообщения
      Вы не можете редактировать свои сообщения
      Вы не можете удалять свои сообщения
      Вы не можете голосовать в опросах
      Вы не можете прикреплять файлы к сообщениям
      Вы можете скачивать файлы