Ссылка на приватное зеркало нашего сайта всего за 1$. Внимание количество ограничено!!!

2 сезон

iTunes

1 сезон

1

iTunes

iTunes

iTunes

1 сезон

RePack

30

ИГРА 18+

pack

ВАЖНО

!!Акция!!

Alien_RageХит недели

RePack

MK11
pack

Забери бонус

RePack

jed

!!Акция!!

Alien_Rage

RePack

fifa19

RePack

Assassins Creed: Odyssey

RePack

NEED FOR SPEED™ PAYBACK

4 сезон

9 сезон

Бесстыжие 9 сезон

Все сериалы

все сериалы на PB.wtf

RePack

FAR CRY 5
  

12 обезьян / Двенадцать обезьян / Twelve Monkeys / 12 Monkeys (Терри Гиллиам ) [1995, фантастика, триллер, BDRip 1080p] Dub + MVO + DVO + 4x AVO + Ukr + Original Eng pb.wtf

12 обезьян через торрент pb.wtf

Размер: 26.71 GB | Добавлен: 5 лет 3 мес. назад | Торрент скачан:157 раз
Скачать  

13-07-2015 05:39 12 обезьян Скачать торрент  


12 обезьян / Twelve Monkeys
««Когда будущее становится историей»»

ИНФОРМАЦИЯ:
Год выпуска:1995
Страна: США
Жанр: фантастика, триллер, детектив
Продолжительность: 02:09:35
Перевод: Дубляж+Профессиональный (многоголосый закадровый)+двухголосый закадровый+Авторский
Субтитры: русские, русские, английские,
Режиссер: Терри Гиллиам

В Ролях:


Брюс Уиллис (James Cole), Мэделин Стоу (Kathryn Railly), Брэд Питт (Jeffrey Goines), Кристофер Пламмер (Dr. Goines), Дэвид Морс (Dr. Peters), Джозеф Мелито (Young Cole), Джон Седа (Jose), Майкл Чэнс (Scarface), Вернон Кэмпбелл (Tiny), Х. Майкл Уоллс (Botanist), Боб Адриан (Geologist), Саймон Джонс (Zoologist)

Описание:
2035 год... Чудовищный, неизлечимый вирус уничтожил пять миллиардов человек, то есть 99% населения Земли. Оставшиеся в живых люди вынуждены обитать под землей.
Уголовник Джеймс Коул добровольно отправляется в опасное путешествие на машине времени. Он должен попасть в прошлое, чтобы помочь ученым найти источник возникновения этого ужасного вируса и раскрыть загадку таинственных «Двенадцати обезьян»...

  • Мировая премьера:27 декабря 1995

    ТЕХ.ДАННЫЕ:
    Качество: BDRip 1080p
    Формат: MKV
    Видео кодек: AVC
    Аудио кодек: AC3, DTS
    Видео: AVC, 1920x1040 (16:9), 19500 kbps, 23,976 fps, 0,407 bpp
    Аудио №1: русский / AC3 / 5.1 / 48 kHz / 384 kbps / 16 bit || дублированный
    Аудио №2: русский / DTS / 5.1 / 48 kHz / 1510 kbps / 24 bit || многоголосый закадровый (Первый канал)
    Аудио №3: русский / DTS / 5.1 / 48 kHz / 1510 kbps / 24 bit || двухголосый закадровый (П.Гланц и И.Королёва)
    Аудио №4: русский / DTS / 5.1 / 48 kHz / 1510 kbps / 24 bit || одноголосый закадровый (А.Гаврилов)
    Аудио №5: русский / DTS / 5.1 / 48 kHz / 1510 kbps / 24 bit || одноголосый закадровый (Ю.Живов)
    Аудио №6: русский / AC3 / 2.0 / 48 kHz / 384 kbps / 16 bit || /одноголосый закадровый (П.Карцев)
    Аудио №7: русский / AC3 / 2.0 / 48 kHz / 192 kbps / 16 bit || одноголосый закадровый (С.Визгунов)
    Аудио №8: украинский / DTS / 5.1 / 48 kHz / 1510 kbps / 24 bit /многоголосый закадровый ("Новий канал")
    Аудио №9: английский / DTS / 5.1 / 48 kHz / 1510 kbps / 24 bit
    Навигация по главам: есть


    Код:

    General
    Unique ID                                : 207405283347809611870697022241208142388 (0x9C08CDF91C276CDABB240C0D467A0A34)
    Complete name                            : D:\Торенты\Кино\12 Monkeys [Двенадцать обезьян] (1995) 1920x1040 BDRip RusEngSubsChpt.mkv
    Format                                   : Matroska
    Format version                           : Version 4 / Version 2
    File size                                : 26.7 GiB
    Duration                                 : 2h 9mn
    Overall bit rate                         : 29.5 Mbps
    Movie name                               : 12 Monkeys -=RbM=-
    Encoded date                             : UTC 2014-04-27 18:22:49
    Writing application                      : mkvmerge v6.6.0 ('The Edge Of The In Between') built on Dec  1 2013 17:55:00
    Writing library                          : libebml v1.3.0 + libmatroska v1.4.1

    Video
    ID                                       : 1
    Format                                   : AVC
    Format/Info                              : Advanced Video Codec
    Format profile                           : High@L4.1
    Format settings, CABAC                   : Yes
    Format settings, ReFrames                : 4 frames
    Codec ID                                 : V_MPEG4/ISO/AVC
    Duration                                 : 2h 9mn
    Bit rate                                 : 19.5 Mbps
    Width                                    : 1 920 pixels
    Height                                   : 1 040 pixels
    Display aspect ratio                     : 16:9
    Frame rate                               : 23.976 fps
    Color space                              : YUV
    Chroma subsampling                       : 4:2:0
    Bit depth                                : 8 bits
    Scan type                                : Progressive
    Bits/(Pixel*Frame)                       : 0.407
    Stream size                              : 17.1 GiB (64%)
    Title                                    : 12 Monkeys (69% of the original)
    Writing library                          : x264 core 142 r2409+41 9f37d41 tMod [8-bit@all X86_64]
    Encoding settings                        : cabac=1 / ref=4 / deblock=1:-2:-2 / analyse=0x3:0x133 / me=umh / subme=11 / psy=1 / fade_compensate=0.00 / psy_rd=1.00:0.15 / mixed_ref=1 / me_range=32 / chroma_me=1 / trellis=2 / 8x8dct=1 / cqm=0 / deadzone=21,11 / fast_pskip=0 / chroma_qp_offset=-3 / threads=12 / lookahead_threads=3 / sliced_threads=0 / nr=0 / decimate=1 / interlaced=0 / bluray_compat=0 / constrained_intra=0 / fgo=0 / bframes=11 / b_pyramid=2 / b_adapt=2 / b_bias=0 / direct=3 / weightb=1 / open_gop=0 / weightp=2 / keyint=240 / keyint_min=23 / scenecut=40 / intra_refresh=0 / rc=2pass / mbtree=0 / bitrate=19500 / ratetol=1.0 / qcomp=0.60 / qpmin=0:0:0 / qpmax=69:69:69 / qpstep=4 / cplxblur=20.0 / qblur=0.5 / ip_ratio=1.10 / pb_ratio=1.30 / aq=2:0.50 / aq-sensitivity=10.00 / aq-factor=1.00:1.00:1.00 / aq2=0 / aq3=0 / zones=180610,186407,q=40
    Language                                 : English
    Default                                  : Yes
    Forced                                   : No

    Audio #1
    ID                                       : 2
    Format                                   : AC-3
    Format/Info                              : Audio Coding 3
    Mode extension                           : CM (complete main)
    Codec ID                                 : A_AC3
    Duration                                 : 2h 9mn
    Bit rate mode                            : Constant
    Bit rate                                 : 384 Kbps
    Channel(s)                               : 6 channels
    Channel positions                        : Front: L C R, Side: L R, LFE
    Sampling rate                            : 48.0 KHz
    Bit depth                                : 16 bits
    Compression mode                         : Lossy
    Stream size                              : 356 MiB (1%)
    Title                                    : Dub AC3 5.1ch 384kbps
    Language                                 : Russian
    Default                                  : Yes
    Forced                                   : No

    Audio #2
    ID                                       : 3
    Format                                   : DTS
    Format/Info                              : Digital Theater Systems
    Codec ID                                 : A_DTS
    Duration                                 : 2h 9mn
    Bit rate mode                            : Constant
    Bit rate                                 : 1 510 Kbps
    Channel(s)                               : 6 channels
    Channel positions                        : Front: L C R, Side: L R, LFE
    Sampling rate                            : 48.0 KHz
    Bit depth                                : 24 bits
    Compression mode                         : Lossy
    Stream size                              : 1.37 GiB (5%)
    Title                                    : MVO DTS 5.1ch 1510kbps (Первый канал)
    Language                                 : Russian
    Default                                  : No
    Forced                                   : No

    Audio #3
    ID                                       : 4
    Format                                   : DTS
    Format/Info                              : Digital Theater Systems
    Codec ID                                 : A_DTS
    Duration                                 : 2h 9mn
    Bit rate mode                            : Constant
    Bit rate                                 : 1 510 Kbps
    Channel(s)                               : 6 channels
    Channel positions                        : Front: L C R, Side: L R, LFE
    Sampling rate                            : 48.0 KHz
    Bit depth                                : 24 bits
    Compression mode                         : Lossy
    Stream size                              : 1.37 GiB (5%)
    Title                                    : DVO DTS 5.1ch 1510kbps (П.Гланц и И.Королёва)
    Language                                 : Russian
    Default                                  : No
    Forced                                   : No

    Audio #4
    ID                                       : 5
    Format                                   : DTS
    Format/Info                              : Digital Theater Systems
    Codec ID                                 : A_DTS
    Duration                                 : 2h 9mn
    Bit rate mode                            : Constant
    Bit rate                                 : 1 510 Kbps
    Channel(s)                               : 6 channels
    Channel positions                        : Front: L C R, Side: L R, LFE
    Sampling rate                            : 48.0 KHz
    Bit depth                                : 24 bits
    Compression mode                         : Lossy
    Stream size                              : 1.37 GiB (5%)
    Title                                    : AVO DTS 5.1ch 1510kbps (А.Гаврилов)
    Language                                 : Russian
    Default                                  : No
    Forced                                   : No

    Audio #5
    ID                                       : 6
    Format                                   : DTS
    Format/Info                              : Digital Theater Systems
    Codec ID                                 : A_DTS
    Duration                                 : 2h 9mn
    Bit rate mode                            : Constant
    Bit rate                                 : 1 510 Kbps
    Channel(s)                               : 6 channels
    Channel positions                        : Front: L C R, Side: L R, LFE
    Sampling rate                            : 48.0 KHz
    Bit depth                                : 24 bits
    Compression mode                         : Lossy
    Stream size                              : 1.37 GiB (5%)
    Title                                    : AVO DTS 5.1ch 1510kbps (Ю.Живов)
    Language                                 : Russian
    Default                                  : No
    Forced                                   : No

    Audio #6
    ID                                       : 7
    Format                                   : AC-3
    Format/Info                              : Audio Coding 3
    Mode extension                           : CM (complete main)
    Codec ID                                 : A_AC3
    Duration                                 : 2h 9mn
    Bit rate mode                            : Constant
    Bit rate                                 : 384 Kbps
    Channel(s)                               : 2 channels
    Channel positions                        : Front: L R
    Sampling rate                            : 48.0 KHz
    Bit depth                                : 16 bits
    Compression mode                         : Lossy
    Stream size                              : 356 MiB (1%)
    Title                                    : AVO AC3 2.0ch 384kbps (П.Карцев)
    Language                                 : Russian
    Default                                  : No
    Forced                                   : No

    Audio #7
    ID                                       : 8
    Format                                   : AC-3
    Format/Info                              : Audio Coding 3
    Mode extension                           : CM (complete main)
    Codec ID                                 : A_AC3
    Duration                                 : 2h 9mn
    Bit rate mode                            : Constant
    Bit rate                                 : 192 Kbps
    Channel(s)                               : 2 channels
    Channel positions                        : Front: L R
    Sampling rate                            : 48.0 KHz
    Bit depth                                : 16 bits
    Compression mode                         : Lossy
    Stream size                              : 178 MiB (1%)
    Title                                    : AVO AC3 2.0ch 192kbps (С.Визгунов)
    Language                                 : Russian
    Default                                  : No
    Forced                                   : No

    Audio #8
    ID                                       : 9
    Format                                   : DTS
    Format/Info                              : Digital Theater Systems
    Codec ID                                 : A_DTS
    Duration                                 : 2h 9mn
    Bit rate mode                            : Constant
    Bit rate                                 : 1 510 Kbps
    Channel(s)                               : 6 channels
    Channel positions                        : Front: L C R, Side: L R, LFE
    Sampling rate                            : 48.0 KHz
    Bit depth                                : 24 bits
    Compression mode                         : Lossy
    Stream size                              : 1.37 GiB (5%)
    Title                                    : MVO DTS 5.1ch 1510kbps (Новий канал)
    Language                                 : Ukrainian
    Default                                  : No
    Forced                                   : No

    Audio #9
    ID                                       : 10
    Format                                   : DTS
    Format/Info                              : Digital Theater Systems
    Codec ID                                 : A_DTS
    Duration                                 : 2h 9mn
    Bit rate mode                            : Constant
    Bit rate                                 : 1 510 Kbps
    Channel(s)                               : 6 channels
    Channel positions                        : Front: L C R, Side: L R, LFE
    Sampling rate                            : 48.0 KHz
    Bit depth                                : 24 bits
    Compression mode                         : Lossy
    Stream size                              : 1.37 GiB (5%)
    Title                                    : Original DTS 5.1ch 1510kbps
    Language                                 : English
    Default                                  : No
    Forced                                   : No

    Text #1
    ID                                       : 11
    Format                                   : UTF-8
    Codec ID                                 : S_TEXT/UTF8
    Codec ID/Info                            : UTF-8 Plain Text
    Language                                 : Russian
    Default                                  : No
    Forced                                   : No

    Text #2
    ID                                       : 12
    Format                                   : UTF-8
    Codec ID                                 : S_TEXT/UTF8
    Codec ID/Info                            : UTF-8 Plain Text
    Language                                 : Russian
    Default                                  : No
    Forced                                   : No

    Text #3
    ID                                       : 13
    Format                                   : UTF-8
    Codec ID                                 : S_TEXT/UTF8
    Codec ID/Info                            : UTF-8 Plain Text
    Language                                 : English
    Default                                  : No
    Forced                                   : No

    Menu
    00:00:00.000                             : :00:00:00.000
    00:08:34.889                             : :00:08:34.889
    00:10:58.366                             : :00:10:58.366
    00:16:39.331                             : :00:16:39.331
    00:21:29.871                             : :00:21:29.871
    00:25:23.897                             : :00:25:23.897
    00:29:27.265                             : :00:29:27.265
    00:32:46.089                             : :00:32:46.089
    00:36:30.271                             : :00:36:30.271
    00:37:55.773                             : :00:37:55.773
    00:40:00.606                             : :00:40:00.606
    00:42:06.232                             : :00:42:06.232
    00:44:45.140                             : :00:44:45.140
    00:47:46.405                             : :00:47:46.405
    00:53:47.849                             : :00:53:47.849
    00:57:13.471                             : :00:57:13.471
    00:58:50.151                             : :00:58:50.151
    01:01:20.677                             : :01:01:20.677
    01:03:24.467                             : :01:03:24.467
    01:06:33.030                             : :01:06:33.030
    01:10:06.744                             : :01:10:06.744
    01:15:50.796                             : :01:15:50.796
    01:18:27.994                             : :01:18:27.994
    01:21:05.235                             : :01:21:05.235
    01:23:42.976                             : :01:23:42.976
    01:25:14.275                             : :01:25:14.275
    01:26:37.358                             : :01:26:37.358
    01:29:04.547                             : :01:29:04.547
    01:31:33.279                             : :01:31:33.279
    01:32:39.262                             : :01:32:39.262
    01:35:04.573                             : :01:35:04.573
    01:39:24.792                             : :01:39:24.792
    01:41:40.511                             : :01:41:40.511
    01:44:33.392                             : :01:44:33.392
    01:46:33.678                             : :01:46:33.678
    01:49:20.428                             : :01:49:20.428
    01:50:58.068                             : :01:50:58.068
    01:52:48.887                             : :01:52:48.887
    01:54:31.364                             : :01:54:31.364
    01:56:33.361                             : :01:56:33.361
    01:59:07.014                             : :01:59:07.014
    02:01:21.565                             : :02:01:21.565
    02:04:13.237                             : :02:04:13.237
    02:05:32.608                             : :02:05:32.608

    Скриншоты:


    © Оформление by Ворон
    pb.wtf



  • Скачать 12 обезьян через торрент http://pic.kartinco.top/images/6/ordi9.jpg Скачать фильм 12 обезьян через торрент бесплантно в хорошем качестве Описание: 2035 год... Чудовищный, неизлечимый вирус уничтожил пять миллиардов человек, то есть 99% населения Земли. Оставшиеся в живых люди ... 8 10 6
    Info! Золотая раздача, скачанное не засчитывается.
    Торрент: Зарегистрирован [2015-07-13 05:39] · скачан: 157 раз
    Статус: √ проверено
    Размер: 26.71 GB
    Как cкачать? Как скачать 12 обезьян через торрент | qTorrent

    28-11-2019 20:33  

    Отключить всю рекламу на сайте

    14-07-2015 11:45 12 обезьян Скачать торрент  

    Спасибо Ворон за отличный фильм в наиотличнейшем качестве.pb.wtf



      Дорогой пользователь! Огромная просьба, поблагодарите релизера, оцените раздачу и оставьте свои комментарий, если Вы скачали 12 обезьян через торрент бесплатно! Внесите свою лепту в развитие PiratBit!
      Комментировать посты могут только пользователи прошедшие не сложную регистрацию
      Показать сообщения:    

      12 обезьян через торрент
      Скачать бесплатно 12 обезьян
      12 обезьян скачать торрент
      12 обезьян смотреть онлайн
      Cкачать фильм 12 обезьян бесплатно
      12 обезьян скачать торрент в хорошем качестве
      12 обезьян смотреть онлайн бесплатно в хорошем качестве


      Вы не можете начинать темы
      Вы не можете отвечать на сообщения
      Вы не можете редактировать свои сообщения
      Вы не можете удалять свои сообщения
      Вы не можете голосовать в опросах
      Вы не можете прикреплять файлы к сообщениям
      Вы можете скачивать файлы