1 сезон

1 сезон

iTunes

1

КиноПоиск HD

Кинопоиск HD

iTunes

13

1 сезон

RePack

30

Новинка

ВАЖНО

ИГРА 18+

pack

RePack

MK11
pack

Легкие деньги

RePack

jed

RePack

fifa19

RePack

RDR2

RePack

NEED FOR SPEED™ PAYBACK

4 сезон

9 сезон

Бесстыжие 9 сезон

Все сериалы

все сериалы на PB.wtf

RePack

FAR CRY 5
  
Magnet ссылка

Призраки Марса / Ghosts of Mars (Джон Карпентер ) [2001, ужасы, фантастика, боевик , BDRip-AVC от potroks] MVO [Лицензия] pb.wtf

Призраки Марса через торрент pb.wtf

Размер: 2.18 GB | Добавлен: 5 лет 9 мес. назад | Торрент скачан:142 раза
Скачать  

13-07-2015 07:18 Призраки Марса Скачать торрент  

Призраки Марса / Ghosts of Mars

Год выпуска: 2001
Страна: США / Screen Gems, Animationwerks, Storm King Productions
Жанр: ужасы, фантастика, боевик
Продолжительность: 01:38:07
Перевод: Профессиональный (многоголосый) [BD CEE]
Субтитры: русские, английские
Режиссер: Джон Карпентер / John Carpenter
В ролях: Наташа Хенстридж (Lieutenant Melanie Ballard), Айс Кьюб (Desolation Williams), Джейсон Стэйтем (Sgt Jericho Butler), Клеа ДюВалл (Bashira Kincaid), Пэм Гриер (Commander Helena Braddock), Джоанна Кэссиди (Whitlock), Ричард Цетрон (Big Daddy Mars), Розмари Форсайт (Inquisitor), Лайам Вейт (Michael Descanso), Дуан Дэвис (Uno), Лобо Себастьян (Dos), Родни А. Грант (Tres)
Описание:
Планета Марс, 2176 год. На одну из дальних шахтерских станций на специальном поезде отправляется отряд полиции, чтобы забрать и доставить в город опасного преступника Уильямса, подозреваемого в убийстве и грабеже. Однако члены отряда еще даже не догадываются о той опасности, которую им приготовил Марс. Ведь отважным полицейским придется столкнуться не столько с людьми, сколько с таинственными и зловещими силами, живущими в самой планете.
Рейтинг:

MPAA: R - Лицам до 17 лет обязательно присутствие взрослого
Качество: BDRip-AVC
Формат: MKV
Видео кодек: AVC
Аудио кодек: AC3
Видео: AVC, 1056x440 (2.40:1), 2285 kbps, 23,976 fps, 0,205 bpp
Аудио#1: русский / AC3 / 5.1 / 48 kHz / 448 kbps / 16 bit
Аудио#2: английский / AC3 / 5.1 / 48 kHz / 448 kbps / 16 bit
Навигация по главам: есть

Релиз группы:
Автор рипа: potroks

Код:

Общее
Уникальный идентификатор : 196383083386887995980784237179526266651 (0x93BE018EE40A534592FB81B3C3013F1B)
Полное имя : Prizraki.Marsa.2001.DUAL.BDRip.x264.-HELLYWOOD.mkv
Формат : Matroska
Версия формата : Version 4 / Version 2
Размер файла : 2,18 Гбайт
Продолжительность : 1 ч. 38 м.
Общий поток : 3181 Кбит/сек
Название фильма : Ghosts of Mars (2001) - HELLYWOOD
Дата кодирования : UTC 2015-06-24 13:06:10
Программа кодирования : mkvmerge v5.9.0 ('On The Loose') built on Dec 15 2012 16:39:58
Библиотека кодирования : libebml v1.3.0 + libmatroska v1.4.0

Видео
Идентификатор : 1
Формат : AVC
Формат/Информация : Advanced Video Codec
Профиль формата : High@L4.1
Параметр CABAC формата : Да
Параметр ReFrames формата : 10 кадров
Идентификатор кодека : V_MPEG4/ISO/AVC
Продолжительность : 1 ч. 38 м.
Битрейт : 2285 Кбит/сек
Ширина : 1056 пикселей
Высота : 440 пикселей
Соотношение сторон : 2,40:1
Режим частоты кадров : Постоянный
Частота кадров : 23,976 кадра/сек
Цветовое пространство : YUV
Субдискретизация насыщенности : 4:2:0
Битовая глубина : 8 бит
Тип развёртки : Прогрессивная
Бит/(Пиксели*Кадры) : 0.205
Размер потока : 1,52 Гбайт (70%)
Заголовок : potroks
Библиотека кодирования : x264 core 146 r2538 121396c
Настройки программы : cabac=1 / ref=10 / deblock=1:-2:-2 / analyse=0x3:0x113 / me=umh / subme=11 / psy=1 / psy_rd=0.99:0.02 / mixed_ref=1 / me_range=48 / chroma_me=1 / trellis=2 / 8x8dct=1 / cqm=0 / deadzone=21,11 / fast_pskip=0 / chroma_qp_offset=-3 / threads=9 / lookahead_threads=2 / sliced_threads=0 / nr=0 / decimate=1 / interlaced=0 / bluray_compat=0 / constrained_intra=0 / bframes=11 / b_pyramid=2 / b_adapt=2 / b_bias=0 / direct=3 / weightb=1 / open_gop=0 / weightp=2 / keyint=250 / keyint_min=23 / scenecut=40 / intra_refresh=0 / rc_lookahead=60 / rc=2pass / mbtree=0 / bitrate=2285 / ratetol=1.0 / qcomp=0.72 / qpmin=0 / qpmax=69 / qpstep=4 / cplxblur=20.0 / qblur=0.5 / vbv_maxrate=14000 / vbv_bufsize=14000 / nal_hrd=none / filler=0 / ip_ratio=1.35 / pb_ratio=1.25 / aq=1:0.80
Язык : English
Default : Да
Forced : Нет

Аудио #1
Идентификатор : 2
Формат : AC-3
Формат/Информация : Audio Coding 3
Расширение режима : CM (complete main)
Параметр Endianness формата : Big
Идентификатор кодека : A_AC3
Продолжительность : 1 ч. 38 м.
Вид битрейта : Постоянный
Битрейт : 448 Кбит/сек
Каналы : 6 каналов
Расположение каналов : Front: L C R, Side: L R, LFE
Частота : 48,0 КГц
Метод сжатия : С потерями
Размер потока : 314 Мбайт (14%)
Заголовок : MVO | DD 5.1 @ 448 kbps - Blu-Ray CEE
Язык : Russian
Default : Да
Forced : Нет

Аудио #2
Идентификатор : 3
Формат : AC-3
Формат/Информация : Audio Coding 3
Расширение режима : CM (complete main)
Параметр Endianness формата : Big
Идентификатор кодека : A_AC3
Продолжительность : 1 ч. 38 м.
Вид битрейта : Постоянный
Битрейт : 448 Кбит/сек
Каналы : 6 каналов
Расположение каналов : Front: L C R, Side: L R, LFE
Частота : 48,0 КГц
Метод сжатия : С потерями
Размер потока : 314 Мбайт (14%)
Заголовок : Original | DD 5.1 @ 448 kbps
Язык : English
Default : Нет
Forced : Нет

Текст #1
Идентификатор : 4
Формат : UTF-8
Идентификатор кодека : S_TEXT/UTF8
Идентификатор кодека/Информация : UTF-8 Plain Text
Язык : Russian
Default : Нет
Forced : Нет

Текст #2
Идентификатор : 5
Формат : UTF-8
Идентификатор кодека : S_TEXT/UTF8
Идентификатор кодека/Информация : UTF-8 Plain Text
Язык : English
Default : Нет
Forced : Нет

Меню
00:00:00.000 : en:(01)00:00:00:000
00:04:47.370 : en:(02)00:04:47:370
00:12:47.641 : en:(03)00:12:47:641
00:17:25.502 : en:(04)00:17:25:502
00:23:34.830 : en:(05)00:23:34:830
00:29:54.375 : en:(06)00:29:54:375
00:35:22.370 : en:(07)00:35:22:370
00:40:51.824 : en:(08)00:40:51:824
00:46:03.135 : en:(09)00:46:03:135
00:53:02.804 : en:(10)00:53:02:804
00:59:08.086 : en:(11)00:59:08:086
01:07:56.238 : en:(12)01:07:56:238
01:11:26.448 : en:(13)01:11:26:448
01:15:01.205 : en:(14)01:15:01:205
01:19:59.336 : en:(15)01:19:59:336
01:27:37.543 : en:(16)01:27:37:543

pb.wtf



Скачать Призраки Марса через торрент http://i71.fastpic.ru/big/2015/0713/1d/f7a00eebcfc01c320358022904e2881d.png Скачать фильм Призраки Марса через торрент бесплантно в хорошем качестве Описание: Планета Марс, 2176 год. На одну из дальних шахтерских станций на специальном поезде отправляется отряд полиции, чтобы забрать и ... 10 10 3
Торрент: Зарегистрирован [2015-07-13 07:18] · скачан: 142 раз
Статус: √ проверено
Размер: 2.18 GB
Как cкачать? Как скачать Призраки Марса через торрент | UTorrent

% Раздел Тема Автор DL S | L
Фильмы 2001-2005 [ 2.91 GB ] Призраки Марса / Ghosts of Mars [2001 BDRip-AVC многоголосый - ] _KaisiK_ Скачать
1 | 0
Фильмы 2001-2005 [ 1.46 GB ] Призраки Марса / Ghosts of Mars [ 2001 DVDRip MVO ] ФёдорOFF Скачать
1 | 0

28-11-2019 20:33  

Отключить всю рекламу на сайте

13-07-2015 08:14 Призраки Марса Скачать торрент  

не самый лучший фильм фантастическо-марсианской тематики, но на безрыбье и его посмотрю с удовольствием.pb.wtf



    Дорогой пользователь! Огромная просьба, поблагодарите релизера, оцените раздачу и оставьте свои комментарий, если Вы скачали Призраки Марса через торрент бесплатно! Внесите свою лепту в развитие PiratBit!
    Комментировать посты могут только пользователи прошедшие не сложную регистрацию
    Показать сообщения:    

    Призраки Марса через торрент
    Скачать бесплатно Призраки Марса
    Призраки Марса скачать торрент
    Призраки Марса смотреть онлайн
    Cкачать фильм Призраки Марса бесплатно
    Призраки Марса скачать торрент в хорошем качестве
    Призраки Марса смотреть онлайн бесплатно в хорошем качестве


    Вы не можете начинать темы
    Вы не можете отвечать на сообщения
    Вы не можете редактировать свои сообщения
    Вы не можете удалять свои сообщения
    Вы не можете голосовать в опросах
    Вы не можете прикреплять файлы к сообщениям
    Вы можете скачивать файлы