Лицензия

MVO

1

1 сезон

Лицензия

Лицензия

13

MVO

1 сезон

Deluxe Edition

pack

Рекомендуем

30

Repack

ВАЖНО

ВАЖНО

Ghostwire

RePack

jed

RePack

fifa19

RePack

RDR2

RePack

NEED FOR SPEED™ PAYBACK

RePack

Кинопоиск HD

 Острые козырьки 6 сезон

6 сезон

FAR CRY 6

RePack

Лицензия

MVO

1

1 сезон

1 сезон

Лицензия

  

Белая мгла / Whiteout (Доминик Сена / Dominic Sena) [2009, боевик, триллер, криминал, BDRip 1080p от _denis_100] DUB

Белая мгла через торрент pb.wtf

Размер: 7.76 GB | Добавлен: 7 лет 2 мес. назад | Торрент скачан:137 раз
Смотреть онлайн Белая мгла | Скачать   

13-07-2015 10:20 Белая мгла Скачать торрент  

Белая мгла / Whiteout
«Это твой последний вздох»


Год выпуска: 2009
Страна: США, Канада, Франция, Турция
Жанр: боевик, триллер, криминал, детектив
Продолжительность: 01:40:44
Перевод: Дублированный
Субтитры: русские (Forced), русские (Full), английские (SDH)
Режиссер: Доминик Сена
В ролях: Кейт Бекинсейл , Гэбриел Махт , Том Скеррит , Коламбус Шорт , Алекс О’Локлин , Шон Дойл , Джоэль Келлер , Джесси Тодд , Артур Холден , Эрин Хикок , Башар Рахаль , Джулиан Кэйн
Описание:
У служительницы закона Кэрри есть всего три дня на то, чтобы с помощью пилота самолета поймать первого серийного убийцу в истории Антарктиды, после чего континент накроет полярная ночь...

R - Лицам до 17 лет обязательно присутствие взрослого
Качество: BDRip 1080p
Контейнер (Расширение): MKV
Видео кодек: AVC
Аудио кодек: AC3
Видео: 1920x800, 9750 Кбит/сек, 23,976 кадр/сек, 0,265 Бит/[Пиксели*Кадры]
Аудио №1: русский / AC3 / 5.1 / 48 kHz / 640 kbps / 16 bit |Дублированный|
Аудио №2: английский / AC3 / 5.1 / 48 kHz / 640 kbps / 16 bit
Навигация по главам(Чаптеры): естьАвтор рипа: Сообщество:
  • Проект был на ранней стадии производства еще в 2002 году. Тогда за главной ролью была закреплена Риз Уизерспун.
  • В фильме присутствует сцена катастрофы самолёта в Антарктиде: подобный инцидент произошёл с Ил-14М Мячковского ОАО.
  • Экипаж самолета Ан-12 состоит в гражданской модификации из 5 человек: КВС, второй пилот, штурман, бортмеханик и бортрадист. В фильме же самолетом управляют только 2 человека, как на современных воздушных судах.
  • Код:

    Format                                   : Matroska
    Format version                           : Version 2
    File size                                : 7.76 GiB
    Duration                                 : 1h 40mn
    Overall bit rate                         : 11.0 Mbps
    Movie name                               : Belaja mgla.(2009).BDRip.1080p.[denis100]
    Encoded date                             : UTC 2015-07-13 06:51:09
    Writing application                      : mkvmerge v5.8.0 ('No Sleep / Pillow') built on Sep  2 2012 15:37:04
    Writing library                          : libebml v1.2.3 + libmatroska v1.3.0

    Video
    ID                                       : 1
    Format                                   : AVC
    Format/Info                              : Advanced Video Codec
    Format profile                           : [email protected]
    Format settings, CABAC                   : Yes
    Format settings, ReFrames                : 5 frames
    Codec ID                                 : V_MPEG4/ISO/AVC
    Duration                                 : 1h 40mn
    Bit rate                                 : 9 750 Kbps
    Width                                    : 1 920 pixels
    Height                                   : 800 pixels
    Display aspect ratio                     : 2.40:1
    Frame rate                               : 23.976 fps
    Color space                              : YUV
    Chroma subsampling                       : 4:2:0
    Bit depth                                : 8 bits
    Scan type                                : Progressive
    Bits/(Pixel*Frame)                       : 0.265
    Stream size                              : 6.70 GiB (86%)
    Title                                    : Belaja mgla.(2009).BDRip.1080p.[denis100]
    Writing library                          : x264 core 146 r2538 121396c
    Encoding settings                        : cabac=1 / ref=5 / deblock=1:-3:-3 / analyse=0x3:0x133 / me=umh / subme=11 / psy=1 / psy_rd=1.00:0.00 / mixed_ref=1 / me_range=32 / chroma_me=1 / trellis=2 / 8x8dct=1 / cqm=0 / deadzone=21,11 / fast_pskip=0 / chroma_qp_offset=-2 / threads=6 / lookahead_threads=1 / sliced_threads=0 / nr=0 / decimate=1 / interlaced=0 / bluray_compat=0 / constrained_intra=0 / bframes=6 / b_pyramid=2 / b_adapt=2 / b_bias=0 / direct=3 / weightb=1 / open_gop=0 / weightp=2 / keyint=240 / keyint_min=23 / scenecut=40 / intra_refresh=0 / rc=2pass / mbtree=0 / bitrate=9750 / ratetol=1.0 / qcomp=0.60 / qpmin=0 / qpmax=69 / qpstep=4 / cplxblur=20.0 / qblur=0.5 / ip_ratio=1.40 / pb_ratio=1.30 / aq=1:1.00
    Language                                 : English
    Default                                  : Yes
    Forced                                   : No

    Audio #1
    ID                                       : 2
    Format                                   : AC-3
    Format/Info                              : Audio Coding 3
    Mode extension                           : CM (complete main)
    Codec ID                                 : A_AC3
    Duration                                 : 1h 40mn
    Bit rate mode                            : Constant
    Bit rate                                 : 640 Kbps
    Channel(s)                               : 6 channels
    Channel positions                        : Front: L C R, Side: L R, LFE
    Sampling rate                            : 48.0 KHz
    Bit depth                                : 16 bits
    Compression mode                         : Lossy
    Stream size                              : 461 MiB (6%)
    Language                                 : Russian
    Default                                  : Yes
    Forced                                   : No

    Audio #2
    ID                                       : 3
    Format                                   : AC-3
    Format/Info                              : Audio Coding 3
    Mode extension                           : CM (complete main)
    Codec ID                                 : A_AC3
    Duration                                 : 1h 40mn
    Bit rate mode                            : Constant
    Bit rate                                 : 640 Kbps
    Channel(s)                               : 6 channels
    Channel positions                        : Front: L C R, Side: L R, LFE
    Sampling rate                            : 48.0 KHz
    Bit depth                                : 16 bits
    Compression mode                         : Lossy
    Stream size                              : 461 MiB (6%)
    Language                                 : English
    Default                                  : No
    Forced                                   : No

    Text #1
    ID                                       : 4
    Format                                   : UTF-8
    Codec ID                                 : S_TEXT/UTF8
    Codec ID/Info                            : UTF-8 Plain Text
    Title                                    : Forced
    Language                                 : Russian
    Default                                  : Yes
    Forced                                   : No

    Text #2
    ID                                       : 5
    Format                                   : UTF-8
    Codec ID                                 : S_TEXT/UTF8
    Codec ID/Info                            : UTF-8 Plain Text
    Title                                    : Full
    Language                                 : Russian
    Default                                  : No
    Forced                                   : No

    Text #3
    ID                                       : 6
    Format                                   : UTF-8
    Codec ID                                 : S_TEXT/UTF8
    Codec ID/Info                            : UTF-8 Plain Text
    Title                                    : SDH
    Language                                 : English
    Default                                  : No
    Forced                                   : No

    Menu
    00:00:00.000                             : en:00:00:00.000
    00:05:15.315                             : en:00:05:15.315
    00:10:17.033                             : en:00:10:17.033
    00:14:37.835                             : en:00:14:37.835
    00:17:50.736                             : en:00:17:50.736
    00:22:16.043                             : en:00:22:16.043
    00:27:17.761                             : en:00:27:17.761
    00:32:12.097                             : en:00:32:12.097
    00:37:05.098                             : en:00:37:05.098
    00:41:07.131                             : en:00:41:07.131
    00:46:34.875                             : en:00:46:34.875
    00:51:55.112                             : en:00:51:55.112
    00:54:17.337                             : en:00:54:17.337
    00:57:32.949                             : en:00:57:32.949
    01:02:31.581                             : en:01:02:31.581
    01:06:17.098                             : en:01:06:17.098
    01:11:15.313                             : en:01:11:15.313
    01:16:13.068                             : en:01:16:13.068
    01:18:05.890                             : en:01:18:05.890
    01:21:52.908                             : en:01:21:52.908
    01:28:48.156                             : en:01:28:48.156
    01:31:49.504                             : en:01:31:49.504
    01:34:07.267                             : en:01:34:07.267

    x264 [info]: frame I:974 Avg QP:12.43 size:149045
    x264 [info]: frame P:39576 Avg QP:14.39 size: 76557
    x264 [info]: frame B:104363 Avg QP:16.57 size: 40120



    Скачать Белая мгла через торрент http://i71.fastpic.ru/big/2015/0713/69/7da5839b771b0eb9b8e747bc74baa369.png Скачать, смотреть онлайн Белая мгла бесплантно в хорошем качестве Описание:У служительницы закона Кэрри есть всего три дня на то, чтобы с помощью пилота самолета поймать первого серийного убийцу в истории ... 10 10 7
    Info! Золотая раздача, скачанное не засчитывается.
    Торрент: Зарегистрирован [2015-07-13 10:20] · скачан: 137 раз
    Статус: √ проверено
    Размер: 7.76 GB
    Как cкачать? Как скачать Белая мгла через торрент | UTorrent

    % Раздел Тема Автор DL S | L
    Фильмы [HD 720p, 1080p] (Хороший звук DUB, MVO) [ 4.42 GB ] Белая мгла / Whiteout | Лицензия | 720p от potroks potroks Скачать
    1 | 0

    28-11-2019 20:33  

    Отключить вcю реклaмy на сайте

      Дорогой пользователь! Огромная просьба, поблагодарите релизера, оцените раздачу и оставьте свои комментарий, если Вы скачали Белая мгла через торрент бесплатно!!
      Комментировать посты могут только пользователи прошедшие не сложную регистрацию
      Показать сообщения:    


      Белая мгла через торрент
      Скачать бесплатно Белая мгла
      Белая мгла скачать торрент
      Белая мгла смотреть онлайн
      Cкачать фильм Белая мгла бесплатно
      Белая мгла скачать торрент в хорошем качестве
      Белая мгла смотреть онлайн бесплатно в хорошем качестве
      Вы не можете начинать темы
      Вы не можете отвечать на сообщения
      Вы не можете редактировать свои сообщения
      Вы не можете удалять свои сообщения
      Вы не можете голосовать в опросах
      Вы не можете прикреплять файлы к сообщениям
      Вы можете скачивать файлы