Ссылка на приватное зеркало нашего сайта всего за 1$. Внимание количество ограничено!!!

2 сезон

iTunes

1 сезон

1

2 сезон

2 сезон

iTunes

1 сезон

RePack

30

Ultimate

ВАЖНО

ИГРА 18+

pack

RePack

MK11
pack

Забери бонус

RePack

jed

!!Акция!!

Alien_Rage

RePack

fifa19

RePack

Assassins Creed: Odyssey

RePack

NEED FOR SPEED™ PAYBACK

4 сезон

9 сезон

Бесстыжие 9 сезон

Все сериалы

все сериалы на PB.wtf

RePack

FAR CRY 5
  

[Сборник лучших фильмов] Жан-Клод Ван Дамм / Jean-Claude Van Damme [1988-1993, драма, спорт, биография, боевик, BDRip 720p] (Часть 1) (60 Fps) от R.G. HD-Films pb.wtf

через торрент pb.wtf

Качают: 2 [ 0 KB/s ]
Размер: 39.24 GB | Добавлен: 5 лет 4 мес. назад | Торрент скачан:99 раз
Скачать  

13-07-2015 14:49 Скачать торрент  

Жан-Клод Ван Дамм / Jean-Claude Van Damme(Часть 1)
Кровавый спорт / Bloodsport
Год выпуска: 1988
Страна: США
Жанр: драма, спорт, биография, боевик

Продолжительность: 01:32:13
Перевод: Профессиональный (двухголосый)
Субтитры: русские (Full),
Режиссер: Ньют Арнольд
В ролях: Жан-Клод Ван Дамм (Frank Dux), Боло Йенг (Chong Li), Форест Уитакер (Rawlins), Дональд Гибб (Ray Jackson), Леа Эйрс (Janice Kent), Норман Бёртон (Helmer), Рой Чяо (Senzo Tanaka), Филип Чань (Captain Chen), Пьер Рафини (Young Frank), Кен Сиу (Victor Lin), Кимо Лаи Квок Ки (Hiro), Бернард Мариано (Sadiq Hossein)
Описание:
В Гонконге должны состояться подпольные соревнования по восточным единоборствам, к которым готовится и один из американских военнослужащих. В свое время, будучи ребенком, он стал приемным сыном японца- учителя каратэ, достиг совершенства путем упорных тренировок и в знак успеха получил священный японский меч.
Он самовольно оставляет воинскую часть и отправляется в Гонконг на «Кумите». По следам молодого человека идет ФБР. Несмотря на все преграды, возникающие на пути каратиста, ему удается добиться победы и вступить в Братство Черного Дракона...
Рейтинг:

Качество: BDRip 720p / 60fps
Формат: MKV
Видео кодек: AVC
Аудио кодек:AC3
Видео: AVC, 1280x720 (16:9), 4659 kbps, 59,940 fps, 0,084 bpp
Аудио №1: русский / AC3 / 2.0 / 48 kHz / 192 kbps / 16 bit ||
Аудио №2: русский / AC3 / 2.0 / 48 kHz / 192 kbps / 16 bit ||
Аудио №3: русский / AC3 / 2.0 / 48 kHz / 384 kbps / 16 bit ||
Релиз:

x264 [info]: frame I:1980 Avg QP:16.33 size:100589
x264 [info]: frame P:89073 Avg QP:19.13 size: 23234
x264 [info]: frame B:240625 Avg QP:22.49 size: 4261
x264 [info]: consecutive B-frames: 3.1% 6.5% 16.2% 16.9% 57.2%


General
Unique ID : 201267065635120509154779063512552081780 (0x976AA07968D968A6A4D49A90996A8974)
Complete name : E:\Jean-Claude Van Damme ( Part 1)\Bloodsport.(1988).720p.(60 Fps).mkv
Format : Matroska
Format version : Version 4 / Version 2
File size : 3.57 GiB
Duration : 1h 32mn
Overall bit rate : 5 538 Kbps
Movie name : Кровавый спорт / Bloodsport (1988) BDRip 720p от R.G. HD-Films | 60 fps
Encoded date : UTC 2015-07-13 09:49:36
Writing application : mkvmerge v6.2.0 ('Promised Land') built on Apr 28 2013 12:22:01
Writing library : libebml v1.3.0 + libmatroska v1.4.0

Video
ID : 1
Format : AVC
Format/Info : Advanced Video Codec
Format profile : High@L4.1
Format settings, CABAC : Yes
Format settings, ReFrames : 4 frames
Codec ID : V_MPEG4/ISO/AVC
Duration : 1h 32mn
Bit rate : 4 660 Kbps
Width : 1 280 pixels
Height : 720 pixels
Display aspect ratio : 16:9
Frame rate : 59.940 fps
Color space : YUV
Chroma subsampling : 4:2:0
Bit depth : 8 bits
Scan type : Progressive
Bits/(Pixel*Frame) : 0.084
Stream size : 3.00 GiB (84%)
Title : slaventi-69 ( R.G. HD-Films | 60 fps )
Writing library : x264 core 130 r2273 b3065e6
Encoding settings : cabac=1 / ref=4 / deblock=1:-1:-1 / analyse=0x3:0x113 / me=umh / subme=9 / psy=1 / psy_rd=1.00:0.00 / mixed_ref=1 / me_range=24 / chroma_me=1 / trellis=2 / 8x8dct=1 / cqm=0 / deadzone=21,11 / fast_pskip=1 / chroma_qp_offset=-2 / threads=3 / lookahead_threads=1 / sliced_threads=0 / nr=0 / decimate=1 / interlaced=0 / bluray_compat=0 / constrained_intra=0 / bframes=4 / b_pyramid=2 / b_adapt=2 / b_bias=0 / direct=1 / weightb=1 / open_gop=0 / weightp=2 / keyint=250 / keyint_min=25 / scenecut=40 / intra_refresh=0 / rc_lookahead=50 / rc=crf / mbtree=1 / crf=17.0 / qcomp=0.60 / qpmin=0 / qpmax=69 / qpstep=4 / ip_ratio=1.40 / aq=1:1.00
Language : English
Default : Yes
Forced : No

Audio #1
ID : 2
Format : AC-3
Format/Info : Audio Coding 3
Mode extension : CM (complete main)
Codec ID : A_AC3
Duration : 1h 32mn
Bit rate mode : Constant
Bit rate : 192 Kbps
Channel(s) : 2 channels
Channel positions : Front: L R
Sampling rate : 48.0 KHz
Bit depth : 16 bits
Compression mode : Lossy
Stream size : 127 MiB (3%)
Title : Двухголосый (R5)
Language : Russian
Default : Yes
Forced : No

Audio #2
ID : 3
Format : AC-3
Format/Info : Audio Coding 3
Mode extension : CM (complete main)
Codec ID : A_AC3
Duration : 1h 32mn
Bit rate mode : Constant
Bit rate : 192 Kbps
Channel(s) : 2 channels
Channel positions : Front: L R
Sampling rate : 48.0 KHz
Bit depth : 16 bits
Compression mode : Lossy
Stream size : 127 MiB (3%)
Title : Двухголосый (НТВ)
Language : Russian
Default : No
Forced : No

Audio #3
ID : 4
Format : AC-3
Format/Info : Audio Coding 3
Mode extension : CM (complete main)
Codec ID : A_AC3
Duration : 1h 32mn
Bit rate mode : Constant
Bit rate : 384 Kbps
Channel(s) : 2 channels
Channel positions : Front: L R
Sampling rate : 48.0 KHz
Bit depth : 16 bits
Compression mode : Lossy
Stream size : 253 MiB (7%)
Title : Многоголосый
Language : Russian
Default : No
Forced : No

Text
ID : 5
Format : PGS
Muxing mode : zlib
Codec ID : S_HDMV/PGS
Codec ID/Info : The same subtitle format used on BDs/HD-DVDs
Title : Full
Language : Russian
Default : No
Forced : No
Черный орел / Black Eagle
Год выпуска: 1988
Страна: США
Жанр: боевик, драма

Продолжительность: 01:44:05
Перевод: Профессиональный (многоголосый)
Режиссер: Эрик Карсон
В ролях: Сё Косуги (Ken Tani), Жан-Клод Ван Дамм (Andrei), Доран Кларк (Patricia Parker), Брюс Френч (Father Joseph Bedelia), Владимир Скомаровский (Col. Vladimir Klimenko), Уильям Бассетт (Dean Rickert), Кейн Косуги (Brian Tani), Шейн Косуги (Denny Tani), Дорота Пузио (Natasha), Ян Триска (Capt. Valery), Джин Дэвис (Steve Henderson), Альфред Маллиа (Peter)
Описание:
Под именем «Черного Орла» специальный агент ЦРУ приезжает на Мальту, чтобы помешать КГБ выкрасть суперсекретное новое лазерное устройство.
С этого дня спокойная жизнь для обитателей острова закончилась: взрывы, погони, убийства, похищения детей. Поклонники этих двух звезд не будут разочарованы этой приключенческой, насыщенной действием картиной.
Рейтинг:

Качество: BDRip 720p / 60fps
Формат: MKV
Видео кодек: AVC
Аудио кодек:AC3
Видео: AVC, 1280x720 (16:9), 5520 kbps, 59,940 fps, 0,100 bpp
Аудио: русский / AC3 / 2.0 / 48 kHz / 384 kbps / 16 bit ||
Навигация по главам: есть
Релиз:
General
Unique ID : 212915224772515171476748170076569206858 (0xA02DFB0F30AAAC09A3BE169BF34C004A)
Complete name : E:\Jean-Claude Van Damme ( Part 1)\Black.Eagle.(1988).720p.(60 Fps)(Director's Cut).mkv
Format : Matroska
Format version : Version 4 / Version 2
File size : 4.38 GiB
Duration : 1h 44mn
Overall bit rate : 6 024 Kbps
Movie name : Черный орел / Black Eagle (1988) BDRip 720p от R.G. HD-Films | 60 fps (Director's Cut)
Encoded date : UTC 2015-07-13 08:10:26
Writing application : mkvmerge v6.2.0 ('Promised Land') built on Apr 28 2013 12:22:01
Writing library : libebml v1.3.0 + libmatroska v1.4.0

Video
ID : 1
Format : AVC
Format/Info : Advanced Video Codec
Format profile : High@L4.1
Format settings, CABAC : Yes
Format settings, ReFrames : 4 frames
Codec ID : V_MPEG4/ISO/AVC
Duration : 1h 44mn
Bit rate : 5 520 Kbps
Width : 1 280 pixels
Height : 720 pixels
Display aspect ratio : 16:9
Frame rate : 59.940 fps
Color space : YUV
Chroma subsampling : 4:2:0
Bit depth : 8 bits
Scan type : Progressive
Bits/(Pixel*Frame) : 0.100
Stream size : 4.01 GiB (92%)
Title : slaventi-69 ( R.G. HD-Films | 60 fps )
Writing library : x264 core 130 r2273 b3065e6
Encoding settings : cabac=1 / ref=4 / deblock=1:0:0 / analyse=0x3:0x113 / me=umh / subme=9 / psy=1 / psy_rd=1.00:0.00 / mixed_ref=1 / me_range=24 / chroma_me=1 / trellis=2 / 8x8dct=1 / cqm=0 / deadzone=21,11 / fast_pskip=1 / chroma_qp_offset=-2 / threads=8 / lookahead_threads=1 / sliced_threads=0 / nr=0 / decimate=1 / interlaced=0 / bluray_compat=0 / constrained_intra=0 / bframes=4 / b_pyramid=2 / b_adapt=2 / b_bias=0 / direct=1 / weightb=1 / open_gop=0 / weightp=2 / keyint=250 / keyint_min=25 / scenecut=40 / intra_refresh=0 / rc_lookahead=40 / rc=crf / mbtree=1 / crf=16.0 / qcomp=0.60 / qpmin=0 / qpmax=69 / qpstep=4 / ip_ratio=1.40 / aq=1:1.00
Language : English
Default : Yes
Forced : No

Audio
ID : 2
Format : AC-3
Format/Info : Audio Coding 3
Mode extension : CM (complete main)
Codec ID : A_AC3
Duration : 1h 44mn
Bit rate mode : Constant
Bit rate : 384 Kbps
Channel(s) : 2 channels
Channel positions : Front: L R
Sampling rate : 48.0 KHz
Bit depth : 16 bits
Compression mode : Lossy
Stream size : 286 MiB (6%)
Title : MVO(Россия1 + вставки из Гаврилова (поздний))
Language : Russian
Default : Yes
Forced : No

Menu
00:00:00.000 : en:00:00:00.000
00:00:00.375 : en:00:00:00.375
00:14:16.938 : en:00:14:16.938
00:28:09.104 : en:00:28:09.104
00:43:15.842 : en:00:43:15.842
00:55:22.735 : en:00:55:22.735
01:08:51.042 : en:01:08:51.042
01:20:13.725 : en:01:20:13.725
01:31:27.398 : en:01:31:27.398
Киборг / Cyborg
Год выпуска: 1989
Страна: США
Жанр: фантастика, боевик, триллер

Продолжительность: 01:26:19
Перевод: Профессиональный (многоголосый)
Субтитры: русские (Русские (форсированные)),
Режиссер: Альберт Пьюн
В ролях: Жан-Клод Ван Дамм (Gibson Rickenbacker), Дебора Рихтер (Nady Simmons), Винсент Клин (Fender Tremolo), Алекс Дэниелс (Marshall Strat), Дейл Хэддон (Pearl Prophet), Блэйз Лунг (Furman Vux / Pirate / Bandit), Ральф Мёллер (Brick Bardo), Хейли Питерсон (Haley), Терри Батсон (Mary), Джексон «Скала» Пинкни (Tytus / Pirate / Bandit), Джэнис Грейсер (Vorg), Роберт Пентз (Base / Pirate / Bandit)
Описание:
Америка 21-го века, прозябая в социальной анархии и смертоносной чуме, вот-вот станет жертвой бурного воровского беспредела. Только Перл Профет, прекрасная полуженщина-полуробот, знает секрет создания спасительной вакцины.
Собирая компоненты, необходимые для спасения человечества, Перл попадает в плен к людоеду Флэшу Пайротсу, который замыслил использовать противоядие в личных целях и добиться господства над целым миром. Теперь только стальной кулак героя-меченосца Гибсона Рикенбакера может спасти ее, а заодно и все, что еще осталось от человечества...
Рейтинг:

Качество: BDRip 720p / 60fps
Формат: MKV
Видео кодек: AVC
Аудио кодек:AC3
Видео: AVC, 1280x688 (1.860), 4885 kbps, 60 fps, 0,092 bpp
Аудио: русский / AC3 / 2.0 / 48 kHz / 384 kbps / 16 bit ||
Навигация по главам: есть
Релиз:
x264 [info]: frame I:1987 Avg QP:17.66 size:111162
x264 [info]: frame P:88338 Avg QP:20.47 size: 22750
x264 [info]: frame B:220416 Avg QP:23.02 size: 4533
x264 [info]: consecutive B-frames: 3.8% 7.2% 20.3% 23.1% 45.6%

Общее
Уникальный идентификатор : 189911755023935853190454675511162715565 (0x8EDFAC6FAF47CA3D99E2013D91443DAD)
Полное имя : E:\Jean-Claude Van Damme ( Part 1)\Cyborg.(1989).720p.(60 Fps).mkv
Формат : Matroska
Версия формата : Version 4 / Version 2
Размер файла : 3,24 Гбайт
Продолжительность : 1 ч. 26 м.
Общий поток : 5377 Кбит/сек
Название фильма : Киборг / Cyborg (1989) BDRip 720p от R.G. HD-Films | 60 fps
Дата кодирования : UTC 2015-07-13 08:36:38
Программа кодирования : mkvmerge v6.2.0 ('Promised Land') built on Apr 28 2013 12:22:01
Библиотека кодирования : libebml v1.3.0 + libmatroska v1.4.0

Видео
Идентификатор : 1
Формат : AVC
Формат/Информация : Advanced Video Codec
Профиль формата : High@L4.1
Параметр CABAC формата : Да
Параметр ReFrames формата : 4 кадра
Идентификатор кодека : V_MPEG4/ISO/AVC
Продолжительность : 1 ч. 26 м.
Битрейт : 4886 Кбит/сек
Ширина : 1280 пикселей
Высота : 688 пикселей
Соотношение сторон : 1,85:1
Режим частоты кадров : Постоянный
Частота кадров : 60,000 кадров/сек
Цветовое пространство : YUV
Субдискретизация насыщенности : 4:2:0
Битовая глубина : 8 бит
Тип развёртки : Прогрессивная
Бит/(Пиксели*Кадры) : 0.092
Размер потока : 2,95 Гбайт (91%)
Заголовок : slaventi-69 ( R.G. HD-Films | 60 fps )
Библиотека кодирования : x264 core 130 r2273 b3065e6
Настройки программы : cabac=1 / ref=4 / deblock=1:0:0 / analyse=0x3:0x113 / me=umh / subme=9 / psy=1 / psy_rd=1.00:0.00 / mixed_ref=1 / me_range=24 / chroma_me=1 / trellis=2 / 8x8dct=1 / cqm=0 / deadzone=21,11 / fast_pskip=1 / chroma_qp_offset=-2 / threads=8 / lookahead_threads=1 / sliced_threads=0 / nr=0 / decimate=1 / interlaced=0 / bluray_compat=0 / constrained_intra=0 / bframes=4 / b_pyramid=2 / b_adapt=2 / b_bias=0 / direct=1 / weightb=1 / open_gop=0 / weightp=2 / keyint=250 / keyint_min=25 / scenecut=40 / intra_refresh=0 / rc_lookahead=40 / rc=crf / mbtree=1 / crf=18.0 / qcomp=0.60 / qpmin=0 / qpmax=69 / qpstep=4 / ip_ratio=1.40 / aq=1:1.00
Язык : English
Default : Да
Forced : Нет

Аудио
Идентификатор : 2
Формат : AC-3
Формат/Информация : Audio Coding 3
Расширение режима : CM (complete main)
Параметр Endianness формата : Big
Идентификатор кодека : A_AC3
Продолжительность : 1 ч. 26 м.
Вид битрейта : Постоянный
Битрейт : 384 Кбит/сек
Каналы : 2 канала
Расположение каналов : Front: L R
Частота : 48,0 КГц
Битовая глубина : 16 бит
Метод сжатия : С потерями
Размер потока : 237 Мбайт (7%)
Заголовок : Профессиональный (многоголосый, закадровый)(R5)
Язык : Russian
Default : Да
Forced : Нет

Текст
Идентификатор : 3
Формат : UTF-8
Идентификатор кодека : S_TEXT/UTF8
Идентификатор кодека/Информация : UTF-8 Plain Text
Заголовок : Русские (форсированные)
Язык : Russian
Default : Нет
Forced : Нет

Меню
00:00:00.000 : :Chapter 01
00:00:25.191 : :Chapter 02
00:04:14.087 : :Chapter 03
00:05:24.699 : :Chapter 04
00:10:31.881 : :Chapter 05
00:16:20.479 : :Chapter 06
00:23:38.166 : :Chapter 07
00:28:52.814 : :Chapter 08
00:32:34.077 : :Chapter 09
00:36:01.075 : :Chapter 10
00:40:01.482 : :Chapter 11
00:46:34.917 : :Chapter 12
00:49:52.364 : :Chapter 13
00:55:11.725 : :Chapter 14
00:56:38.103 : :Chapter 15
00:59:36.614 : :Chapter 16
01:05:58.037 : :Chapter 17
01:09:25.035 : :Chapter 18
01:12:41.565 : :Chapter 19
01:19:29.723 : :Chapter 20
01:22:11.801 : :Chapter 21
01:26:24.179 : :Chapter 22
Кикбоксер / Kickboxer
Год выпуска: 1989
Страна: США
Жанр: боевик, триллер, спорт

Продолжительность: 01:37:24
Перевод: Профессиональный (многоголосый)
Режиссер: Марк ДиСалле , Дэвид Уорт
В ролях: Жан-Клод Ван Дамм (Kurt Sloane), Деннис Алексио (Eric Sloane), Деннис Чан (Xian Chow), Мишель Кисси (Tong Po), Хэскелл В. Андерсон III (Winston Taylor), Рошель Ашана (Mylee), Ка Тинг Ли (Freddy Li), Ричард Фу (Tao Liu), Рикки Лю (Big Thai Man), Син Хо Йинг (Huge Village Man #1), Тони Чан (Huge Village Man #2), Брэд Кернер (U.S. Announcer)
Описание:
Братья Курт и Эрик Слоан отправляются в Таиланд, на родину кикбоксинга, чтобы доказать местным бойцам превосходство американской школы над тайской. Эрик, чемпион Америки по кикбоксингу, встречается в бою с Тонг По, чемпионом Таиланда.
Тонг По оказывается сущим зверем. Он намеренно калечит уже обессилевшего Эрика Слоана, обрекая его на инвалидность. Курт поступает в обучение к мастеру тайской борьбы Зену, чтобы победить Тонг По и отомстить за парализованного брата.
Рейтинг:

Качество: BDRip 720p / 60fps
Формат: MKV
Видео кодек: AVC
Аудио кодек:AC3
Видео: AVC, 1280x720 (16:9), 5527 kbps, 60 fps, 0,100 bpp
Аудио: русский / AC3 / 5.1 / 48 kHz / 384 kbps / 16 bit ||
Релиз:
General
Unique ID : 250970426459745114918942444728208056593 (0xBCCF255CCFD28C869F6B44E4121FE111)
Complete name : E:\Jean-Claude Van Damme ( Part 1)\Kikbokser.(1989).720p.(60 Fps).mkv
Format : Matroska
Format version : Version 4 / Version 2
File size : 4.10 GiB
Duration : 1h 37mn
Overall bit rate : 6 032 Kbps
Movie name : Кикбоксёр Kickboxer (1989) BDRip 720p от R.G. HD-Films | 60 fps
Encoded date : UTC 2015-07-13 08:43:53
Writing application : mkvmerge v6.2.0 ('Promised Land') built on Apr 28 2013 12:22:01
Writing library : libebml v1.3.0 + libmatroska v1.4.0

Video
ID : 1
Format : AVC
Format/Info : Advanced Video Codec
Format profile : High@L4.1
Format settings, CABAC : Yes
Format settings, ReFrames : 4 frames
Codec ID : V_MPEG4/ISO/AVC
Duration : 1h 37mn
Bit rate : 5 528 Kbps
Width : 1 280 pixels
Height : 720 pixels
Display aspect ratio : 16:9
Frame rate : 60.000 fps
Color space : YUV
Chroma subsampling : 4:2:0
Bit depth : 8 bits
Scan type : Progressive
Bits/(Pixel*Frame) : 0.100
Stream size : 3.76 GiB (92%)
Title : slaventi-69 ( R.G. HD-Films | 60 fps )
Writing library : x264 core 130 r2273 b3065e6
Encoding settings : cabac=1 / ref=4 / deblock=1:0:0 / analyse=0x3:0x113 / me=umh / subme=9 / psy=1 / psy_rd=1.00:0.00 / mixed_ref=1 / me_range=24 / chroma_me=1 / trellis=2 / 8x8dct=1 / cqm=0 / deadzone=21,11 / fast_pskip=1 / chroma_qp_offset=-2 / threads=8 / lookahead_threads=1 / sliced_threads=0 / nr=0 / decimate=1 / interlaced=0 / bluray_compat=0 / constrained_intra=0 / bframes=4 / b_pyramid=2 / b_adapt=2 / b_bias=0 / direct=1 / weightb=1 / open_gop=0 / weightp=2 / keyint=250 / keyint_min=25 / scenecut=40 / intra_refresh=0 / rc_lookahead=40 / rc=crf / mbtree=1 / crf=15.5 / qcomp=0.60 / qpmin=0 / qpmax=69 / qpstep=4 / ip_ratio=1.40 / aq=1:1.00
Language : English
Default : Yes
Forced : No

Audio
ID : 2
Format : AC-3
Format/Info : Audio Coding 3
Mode extension : CM (complete main)
Codec ID : A_AC3
Duration : 1h 37mn
Bit rate mode : Constant
Bit rate : 384 Kbps
Channel(s) : 6 channels
Channel positions : Front: L C R, Side: L R, LFE
Sampling rate : 48.0 KHz
Bit depth : 16 bits
Compression mode : Lossy
Stream size : 268 MiB (6%)
Title : AC3 5.1 384 Многоголосный закадровый
Language : Russian
Default : Yes
Forced : No
Самоволка / Lionheart
Год выпуска: 1990
Страна: США
Жанр: боевик, драма, спорт

Продолжительность: 01:45:18
Перевод: Профессиональный (многоголосый)
Субтитры: русские (Full),
Режиссер: Шелдон Леттич
В ролях: Жан-Клод Ван Дамм (Lyon), Харрисон Пейдж (Joshua), Дебора Реннард (Cynthia), Лиза Пеликан (Helene), Эшли Джонсон (Nicole Gaultier), Брайан Томпсон (Russell), Войо Горич (Sgt. Hartog), Мишель Кисси (Moustafa), Джордж МакДэниэл (Adjutant), Эрик Карсон (Doctor), Эш Эдамс (Francois), Уильям Т. Амос (Drug Dealer)
Описание:
Узнав, что его брат в Лос-Анджелесе серьезно ранен, Лайон Голтье дезертирует из французского иностранного легиона, базирующегося в отдаленном районе Северной Африки.
Скрываясь от двух боевиков-легионеров, которым дан приказ вернуть его любой ценой, Лайон против своего желания становится участником незаконных боев современных гладиаторов, дерущихся голыми руками для развлечения богатых. Ему нужны деньги, чтобы помочь семье своего брата.
Рейтинг:

Качество: BDRip 720p / 60fps
Формат: MKV
Видео кодек: AVC
Аудио кодек:AC3
Видео: AVC, 1280x696 (16:9), 9483 kbps, 59,940 fps, 0,178 bpp
Аудио №1: русский / AC3 / 2.0 / 48 kHz / 192 kbps / 16 bit ||
Аудио №2: русский / AC3 / 2.0 / 48 kHz / 192 kbps / 16 bit ||
Навигация по главам: есть
Релиз:
General
Unique ID : 227160515784328854514475664515707690497 (0xAAE58621CB26DA8F943347D1A38BDE01)
Complete name : E:\Jean-Claude Van Damme ( Part 1)\Lionheart.(1990).720p.(60 Fps).mkv
Format : Matroska
Format version : Version 4 / Version 2
File size : 7.41 GiB
Duration : 1h 45mn
Overall bit rate : 10.1 Mbps
Movie name : Самоволка / Lionheart (1990) BDRip 720p от R.G. HD-Films | 60 fps
Encoded date : UTC 2015-07-13 10:16:06
Writing application : mkvmerge v6.2.0 ('Promised Land') built on Apr 28 2013 12:22:01
Writing library : libebml v1.3.0 + libmatroska v1.4.0

Video
ID : 1
Format : AVC
Format/Info : Advanced Video Codec
Format profile : High@L4.1
Format settings, CABAC : Yes
Format settings, ReFrames : 4 frames
Codec ID : V_MPEG4/ISO/AVC
Duration : 1h 45mn
Bit rate : 9 483 Kbps
Width : 1 280 pixels
Height : 696 pixels
Display aspect ratio : 16:9
Frame rate : 59.940 fps
Color space : YUV
Chroma subsampling : 4:2:0
Bit depth : 8 bits
Scan type : Progressive
Bits/(Pixel*Frame) : 0.178
Stream size : 6.98 GiB (94%)
Title : slaventi-69 ( R.G. HD-Films | 60 fps )
Writing library : x264 core 130 r2273 b3065e6
Encoding settings : cabac=1 / ref=4 / deblock=1:-1:-1 / analyse=0x3:0x113 / me=umh / subme=9 / psy=1 / psy_rd=1.00:0.00 / mixed_ref=1 / me_range=24 / chroma_me=1 / trellis=2 / 8x8dct=1 / cqm=0 / deadzone=21,11 / fast_pskip=1 / chroma_qp_offset=-2 / threads=3 / lookahead_threads=1 / sliced_threads=0 / nr=0 / decimate=1 / interlaced=0 / bluray_compat=0 / constrained_intra=0 / bframes=4 / b_pyramid=2 / b_adapt=2 / b_bias=0 / direct=1 / weightb=1 / open_gop=0 / weightp=2 / keyint=250 / keyint_min=25 / scenecut=40 / intra_refresh=0 / rc_lookahead=50 / rc=crf / mbtree=1 / crf=17.5 / qcomp=0.60 / qpmin=0 / qpmax=69 / qpstep=4 / ip_ratio=1.40 / aq=1:1.00
Language : English
Default : Yes
Forced : No

Audio #1
ID : 2
Format : AC-3
Format/Info : Audio Coding 3
Mode extension : CM (complete main)
Codec ID : A_AC3
Duration : 1h 45mn
Bit rate mode : Constant
Bit rate : 192 Kbps
Channel(s) : 2 channels
Channel positions : Front: L R
Sampling rate : 48.0 KHz
Bit depth : 16 bits
Compression mode : Lossy
Stream size : 145 MiB (2%)
Title : Многоголосый - РТР ( AC3 2.0 @ 192 kbps.ac3 )
Language : Russian
Default : Yes
Forced : No

Audio #2
ID : 3
Format : AC-3
Format/Info : Audio Coding 3
Mode extension : CM (complete main)
Codec ID : A_AC3
Duration : 1h 45mn
Bit rate mode : Constant
Bit rate : 192 Kbps
Channel(s) : 2 channels
Channel positions : Front: L R
Sampling rate : 48.0 KHz
Bit depth : 16 bits
Compression mode : Lossy
Delay relative to video : 4ms
Stream size : 145 MiB (2%)
Title : Авторский [Андрей Гаврилов] AC3 2.0 @ 192 kbps.ac3
Language : Russian
Default : No
Forced : No

Text
ID : 4
Format : UTF-8
Codec ID : S_TEXT/UTF8
Codec ID/Info : UTF-8 Plain Text
Title : Full
Language : Russian
Default : No
Forced : No

Menu
00:00:00.000 : en:Chapter 01
00:09:43.000 : en:Chapter 02
00:16:45.000 : en:Chapter 03
00:28:33.000 : en:Chapter 04
00:39:23.000 : en:Chapter 05
00:53:25.000 : en:Chapter 06
00:59:43.000 : en:Chapter 07
01:09:43.000 : en:Chapter 08
01:19:49.000 : en:Chapter 09
01:29:59.000 : en:Chapter 10
01:39:57.000 : en:Chapter 11
Ордер на смерть / Death Warrant
Год выпуска: 1990
Страна: Канада, США
Жанр: боевик, триллер, драма, криминал, детектив

Продолжительность: 01:28:58
Перевод: Профессиональный (многоголосый)
Режиссер: Деран Сарафян
В ролях: Жан-Клод Ван Дамм (Louis Burke), Роберт Гийом (Hawkins), Синтия Гибб (Amanda Beckett), Джордж Дикерсон (Tom Vogler), Арт ЛаФлёр (Sergeant DeGraf), Пэтрик Килпэтрик (Christian «The Sandman» Naylor), Джошуа Джон Миллер (Douglas Tisdale), Хэнк Стоун (Romaker), Конрад Данн (Konefke), Джек Бэннон (Ben Keane), Абдул Салаам Эль Раззас (Priest), Армин Шимерман (Dr. Gottesman)
Описание:
Офицер Луис Берк, «нечистый на руку» полицейский детектив, отправляется под видом осужденного в тюрьму «Харрисон», чтобы раскрыть серию убийств заключенных. В стенах тюрьмы он сталкивается с жестокостью сокамерников, с коррумпированными охранниками, со смертью и предательством всех мастей.
Когда Берк узнает шокирующую тайну тюрьмы, он должен совершить дерзкий побег - его последний шанс вырваться из лап сотен осужденных головорезов, возглавляемых его кровным врагом - «Заговорённым».
Рейтинг:

Качество: BDRip 720p / 60fps
Формат: MKV
Видео кодек: AVC
Аудио кодек:AC3
Видео: AVC, 1280x696 (16:9), 5492 kbps, 60 fps, 0,103 bpp
Аудио: русский / AC3 / 2.0 / 48 kHz / 384 kbps / 16 bit ||
Навигация по главам: есть
Релиз:
General
Unique ID : 171953630476390944097605921328077473207 (0x815D10897F9207759609F79A52C805B7)
Complete name : E:\Jean-Claude Van Damme ( Part 1)\Death.warrant.(1990).720p.(60 Fps).mkv
Format : Matroska
Format version : Version 4 / Version 2
File size : 3.73 GiB
Duration : 1h 28mn
Overall bit rate : 5 996 Kbps
Movie name : Ордер на смерть / Death warrant (1990) BDRip 720p от R.G. HD-Films | 60 fps
Encoded date : UTC 2015-07-13 08:24:10
Writing application : mkvmerge v6.2.0 ('Promised Land') built on Apr 28 2013 12:22:01
Writing library : libebml v1.3.0 + libmatroska v1.4.0

Video
ID : 1
Format : AVC
Format/Info : Advanced Video Codec
Format profile : High@L4.1
Format settings, CABAC : Yes
Format settings, ReFrames : 4 frames
Codec ID : V_MPEG4/ISO/AVC
Duration : 1h 28mn
Bit rate : 5 492 Kbps
Width : 1 280 pixels
Height : 696 pixels
Display aspect ratio : 16:9
Frame rate : 60.000 fps
Color space : YUV
Chroma subsampling : 4:2:0
Bit depth : 8 bits
Scan type : Progressive
Bits/(Pixel*Frame) : 0.103
Stream size : 3.41 GiB (92%)
Title : slaventi-69 ( R.G. HD-Films | 60 fps )
Writing library : x264 core 130 r2273 b3065e6
Encoding settings : cabac=1 / ref=4 / deblock=1:0:0 / analyse=0x3:0x113 / me=umh / subme=9 / psy=1 / psy_rd=1.00:0.00 / mixed_ref=1 / me_range=24 / chroma_me=1 / trellis=2 / 8x8dct=1 / cqm=0 / deadzone=21,11 / fast_pskip=1 / chroma_qp_offset=-2 / threads=3 / lookahead_threads=1 / sliced_threads=0 / nr=0 / decimate=1 / interlaced=0 / bluray_compat=0 / constrained_intra=0 / bframes=4 / b_pyramid=2 / b_adapt=2 / b_bias=0 / direct=1 / weightb=1 / open_gop=0 / weightp=2 / keyint=250 / keyint_min=25 / scenecut=40 / intra_refresh=0 / rc_lookahead=40 / rc=crf / mbtree=1 / crf=16.5 / qcomp=0.60 / qpmin=0 / qpmax=69 / qpstep=4 / ip_ratio=1.40 / aq=1:1.00
Language : English
Default : Yes
Forced : No

Audio
ID : 2
Format : AC-3
Format/Info : Audio Coding 3
Mode extension : CM (complete main)
Codec ID : A_AC3
Duration : 1h 28mn
Bit rate mode : Constant
Bit rate : 384 Kbps
Channel(s) : 2 channels
Channel positions : Front: L R
Sampling rate : 48.0 KHz
Bit depth : 16 bits
Compression mode : Lossy
Stream size : 244 MiB (6%)
Title : MVO
Language : Russian
Default : Yes
Forced : No

Menu
00:00:00.000 : en:00:00:00.000
00:05:19.986 : en:00:05:19.986
00:09:28.401 : en:00:09:28.401
00:15:58.499 : en:00:15:58.499
00:22:16.835 : en:00:22:16.835
00:25:21.270 : en:00:25:21.270
00:33:30.008 : en:00:33:30.008
00:36:32.232 : en:00:36:32.232
00:42:44.479 : en:00:42:44.479
00:46:57.398 : en:00:46:57.398
00:51:52.067 : en:00:51:52.067
00:55:57.854 : en:00:55:57.854
01:02:11.186 : en:01:02:11.186
01:08:19.929 : en:01:08:19.929
01:14:06.817 : en:01:14:06.817
01:24:30.983 : en:01:24:30.983
Двойной удар / Double Impact
Год выпуска: 1991
Страна: США
Жанр: боевик, триллер, драма, комедия, криминал

Продолжительность: 01:49:39
Перевод: Профессиональный (многоголосый)
Режиссер: Шелдон Леттич
В ролях: Жан-Клод Ван Дамм (Alex / Chad Wagner), Джеффри Льюис (Frank Avery), Алонна Шоу (Danielle Wilde), Коринна Эверсон (Kara), Филип Чань (Raymond Zhang), Алан Скарф (Nigel Griffith), Боло Йенг (Moon), Энди Армстронг (Paul Wagner), Ву Фонг Ланг (Chinese Nurse), Питер Малота (Body Guard With Spurs), Сара-Джейн Варли (Katherine Wagner), Камель Крифа (Mah Jong Manager)
Описание:
Когда-то мафия из Гонконга жестоко и безжалостно расправилась с родителями братьев-близнецов Чеда и Алекса, которых чудом удалось спасти в давней кровавой перестрелке. Судьба раскидала братьев по разные стороны океана: один рос в Калифорнии, другой остался в Гонконге. И вот спустя 25 лет стараниями верного друга их погибших родителей два брата встречаются, чтобы заставить виновников того преступления сильно раскаяться в некогда содеянном.
Рейтинг:

Качество: BDRip 720p / 60fps
Формат: MKV
Видео кодек: AVC
Аудио кодек:AC3
Видео: AVC, 1280x696 (16:9), 5758 kbps, 60 fps, 0,108 bpp
Аудио: русский / AC3 / 5.1 / 48 kHz / 384 kbps / 16 bit ||
Релиз:
General
Unique ID : 177416721162986576622929352258830806306 (0x857937B420ACF1EAA7EA0B8161C92D22)
Complete name : E:\Jean-Claude Van Damme ( Part 1)\Double.Impact.(1991).720p.(60 Fps).mkv
Format : Matroska
Format version : Version 4 / Version 2
File size : 4.80 GiB
Duration : 1h 49mn
Overall bit rate : 6 267 Kbps
Movie name : Двойной удар / Double Impact (1991) BDRip 720p от R.G. HD-Films | 60 fps
Encoded date : UTC 2015-07-13 09:06:13
Writing application : mkvmerge v6.2.0 ('Promised Land') built on Apr 28 2013 12:22:01
Writing library : libebml v1.3.0 + libmatroska v1.4.0

Video
ID : 1
Format : AVC
Format/Info : Advanced Video Codec
Format profile : High@L4.1
Format settings, CABAC : Yes
Format settings, ReFrames : 4 frames
Codec ID : V_MPEG4/ISO/AVC
Duration : 1h 49mn
Bit rate : 5 758 Kbps
Width : 1 280 pixels
Height : 696 pixels
Display aspect ratio : 16:9
Frame rate : 60.000 fps
Color space : YUV
Chroma subsampling : 4:2:0
Bit depth : 8 bits
Scan type : Progressive
Bits/(Pixel*Frame) : 0.108
Stream size : 4.41 GiB (92%)
Title : slaventi-69 ( R.G. HD-Films | 60 fps )
Writing library : x264 core 130 r2273 b3065e6
Encoding settings : cabac=1 / ref=4 / deblock=1:0:0 / analyse=0x3:0x113 / me=umh / subme=9 / psy=1 / psy_rd=1.00:0.00 / mixed_ref=1 / me_range=24 / chroma_me=1 / trellis=2 / 8x8dct=1 / cqm=0 / deadzone=21,11 / fast_pskip=1 / chroma_qp_offset=-2 / threads=8 / lookahead_threads=1 / sliced_threads=0 / nr=0 / decimate=1 / interlaced=0 / bluray_compat=0 / constrained_intra=0 / bframes=4 / b_pyramid=2 / b_adapt=2 / b_bias=0 / direct=1 / weightb=1 / open_gop=0 / weightp=2 / keyint=250 / keyint_min=25 / scenecut=40 / intra_refresh=0 / rc_lookahead=40 / rc=crf / mbtree=1 / crf=15.5 / qcomp=0.60 / qpmin=0 / qpmax=69 / qpstep=4 / ip_ratio=1.40 / aq=1:1.00
Language : English
Default : Yes
Forced : No

Audio
ID : 2
Format : AC-3
Format/Info : Audio Coding 3
Mode extension : CM (complete main)
Codec ID : A_AC3
Duration : 1h 49mn
Bit rate mode : Constant
Bit rate : 384 Kbps
Channel(s) : 6 channels
Channel positions : Front: L C R, Side: L R, LFE
Sampling rate : 48.0 KHz
Bit depth : 16 bits
Compression mode : Lossy
Delay relative to video : 6s 0ms
Stream size : 301 MiB (6%)
Title : [профессиональный многоголосый, OPT]
Language : Russian
Default : Yes
Forced : No
Некуда бежать / Nowhere to Run
Год выпуска: 1993
Страна: США
Жанр: боевик, триллер, драма, мелодрама, криминал

Продолжительность: 01:34:13
Перевод: Дубляж
Субтитры: русские (Full),
Режиссер: Роберт Хармон
В ролях: Жан-Клод Ван Дамм (Sam Gillen), Розанна Аркетт (Clydie Anderson), Киран Калкин (Mike «Mookie» Anderson), Тед Левайн (Mr. Dunston), Тиффани Тоубмэн (Bree Anderson), Эдвард Блэтчфорд (Sheriff Lonnie Cole), Энтони Старк (Billy), Джосс Экленд (Franklin Hale), Аллан Граф (Bus Driver), Леонард Термо (Bus Guard), Роберт Аписа (Prisoner), Джофри С. Браун (Prisoner)
Описание:
Сэм, беглый заключенный находит кров на уединенной ферме, где живет молодая женщина с двумя детьми. С трудом сбежав от полиции, он уже на пути к свободе, но безопасность тех, кто помог ему в трудную минуту, заставляет его вернуться.
Беспомощной женщине и двум ее детям угрожает опасность - подкупленный судья и бандиты хотят отобрать у них дом - и Сэм встает на защиту семьи.
В трудной схватке он один противостоит нескольким головорезам, но только так он может заслужить любовь и доверие тех, кто стал для него самым дорогими людьми на свете.
Рейтинг:

Качество: BDRip 720p / 60fps
Формат: MKV
Видео кодек: AVC
Аудио кодек:AC3
Видео: AVC, 1280x696 (16:9), 5949 kbps, 60 fps, 0,111 bpp
Аудио: русский / AC3 / 5.1 / 48 kHz / 384 kbps / 16 bit ||
Навигация по главам: есть
Релиз:
General
Unique ID : 246714380770188526146012725129952902732 (0xB99B761BED3574EEB73C952422583E4C)
Complete name : E:\Jean-Claude Van Damme ( Part 1)\Nowhere.to.Run.(1993).720p.(60 Fps).mkv
Format : Matroska
Format version : Version 4 / Version 2
File size : 4.25 GiB
Duration : 1h 34mn
Overall bit rate : 6 462 Kbps
Movie name : Некуда бежать / Nowhere to Run (1993) BDRip 720p от R.G. HD-Films | 60 fps
Encoded date : UTC 2015-07-13 09:20:17
Writing application : mkvmerge v6.2.0 ('Promised Land') built on Apr 28 2013 12:22:01
Writing library : libebml v1.3.0 + libmatroska v1.4.0

Video
ID : 1
Format : AVC
Format/Info : Advanced Video Codec
Format profile : High@L4.1
Format settings, CABAC : Yes
Format settings, ReFrames : 4 frames
Codec ID : V_MPEG4/ISO/AVC
Duration : 1h 34mn
Bit rate : 5 950 Kbps
Width : 1 280 pixels
Height : 696 pixels
Display aspect ratio : 16:9
Frame rate : 60.000 fps
Color space : YUV
Chroma subsampling : 4:2:0
Bit depth : 8 bits
Scan type : Progressive
Bits/(Pixel*Frame) : 0.111
Stream size : 3.92 GiB (92%)
Title : slaventi-69 ( R.G. HD-Films | 60 fps )
Writing library : x264 core 130 r2273 b3065e6
Encoding settings : cabac=1 / ref=4 / deblock=1:0:0 / analyse=0x3:0x113 / me=umh / subme=9 / psy=1 / psy_rd=1.00:0.00 / mixed_ref=1 / me_range=24 / chroma_me=1 / trellis=2 / 8x8dct=1 / cqm=0 / deadzone=21,11 / fast_pskip=1 / chroma_qp_offset=-2 / threads=10 / lookahead_threads=1 / sliced_threads=0 / nr=0 / decimate=1 / interlaced=0 / bluray_compat=0 / constrained_intra=0 / bframes=4 / b_pyramid=2 / b_adapt=2 / b_bias=0 / direct=1 / weightb=1 / open_gop=0 / weightp=2 / keyint=250 / keyint_min=25 / scenecut=40 / intra_refresh=0 / rc_lookahead=40 / rc=crf / mbtree=1 / crf=17.0 / qcomp=0.60 / qpmin=0 / qpmax=69 / qpstep=4 / ip_ratio=1.40 / aq=1:1.00
Language : English
Default : Yes
Forced : No

Audio
ID : 2
Format : AC-3
Format/Info : Audio Coding 3
Mode extension : CM (complete main)
Codec ID : A_AC3
Duration : 1h 34mn
Bit rate mode : Constant
Bit rate : 384 Kbps
Channel(s) : 6 channels
Channel positions : Front: L C R, Side: L R, LFE
Sampling rate : 48.0 KHz
Bit depth : 16 bits
Compression mode : Lossy
Stream size : 259 MiB (6%)
Title : Dub
Language : Russian
Default : Yes
Forced : No

Text
ID : 3
Format : UTF-8
Codec ID : S_TEXT/UTF8
Codec ID/Info : UTF-8 Plain Text
Title : Full
Language : Russian
Default : No
Forced : No

Menu
00:00:00.000 : :Chapter 01
00:06:16.539 : :Chapter 02
00:11:23.138 : :Chapter 03
00:20:33.855 : :Chapter 04
00:26:13.527 : :Chapter 05
00:31:30.886 : :Chapter 06
00:38:51.661 : :Chapter 07
00:46:41.172 : :Chapter 08
00:48:45.922 : :Chapter 09
00:54:19.338 : :Chapter 10
01:00:10.148 : :Chapter 11
01:06:52.046 : :Chapter 12
01:12:14.997 : :Chapter 13
01:19:34.185 : :Chapter 14
01:24:00.452 : :Chapter 15
01:27:21.734 : :Chapter 16
01:34:19.403 : :Chapter 17

Просьба к переливающим на другие сайты, в оформлении указывайте пожалуйста авторство рипа slaventi-69
Трудная мишень / Hard Target
Год выпуска: 1993
Страна: США
Жанр: боевик, триллер

Продолжительность: 01:39:30
Перевод: Профессиональный (многоголосый)
Субтитры: русские,
Режиссер: Джон Ву
В ролях: Жан-Клод Ван Дамм (Chance Boudreaux), Янси Батлер (Natasha «Nat» Binder), Лэнс Хенриксен (Emil Fouchon), Арнольд Вослу (Pik van Cleef), Уилфорд Бримли (Uncle Douvee), Уилли С. Карпентер (Elijah Roper), Кейси Леммонс (Det. Marie Mitchell), Чак Пфаррер (Douglas Binder), Роберт Аписа (Mr. Lopacki), Дуглас Форсайт Рай (Frick), Майк Лейнерт (Frack), Ленор Бэнкс (Marie)
Описание:
Мужественный герой неутомимого Ван Дамма пытается помочь молодой красавице найти ее отца, ветерана вьетнамской войны, пропавшего без вести не на полях сражений, а в родной стране, а в результате - вынужден не на жизнь, а на смерть схватиться с бандой патологических злодеев, которые используют несчастных бездомных в качестве жертв своей жестокой и опасной игры.
Рейтинг:

Качество: BDRip 720p / 60fps
Формат: MKV
Видео кодек: AVC
Аудио кодек:AC3
Видео: AVC, 1280x688 (1.860), 4914 kbps, 60 fps, 0,093 bpp
Аудио: русский / AC3 / 2.0 / 48 kHz / 384 kbps / 16 bit ||
Навигация по главам: есть
Релиз:
x264 [info]: frame I:2626 Avg QP:16.33 size:102294
x264 [info]: frame P:89687 Avg QP:19.22 size: 24193
x264 [info]: frame B:265728 Avg QP:22.26 size: 4919
x264 [info]: consecutive B-frames: 2.5% 3.6% 13.3% 18.9% 61.7%

General
Unique ID : 214242689144489720039883906851077611429 (0xA12DA41B20CAE6379CB9C4EEFC3FDFA5)
Complete name : E:\Jean-Claude Van Damme ( Part 1)\Hard.Target.(1993).720p.(60 Fps).mkv
Format : Matroska
Format version : Version 4 / Version 2
File size : 3.76 GiB
Duration : 1h 39mn
Overall bit rate : 5 406 Kbps
Movie name : Трудная мишень / Hard Target (1993) BDRip 720p от R.G. HD-Films | 60 fps
Encoded date : UTC 2015-07-13 09:35:04
Writing application : mkvmerge v6.2.0 ('Promised Land') built on Apr 28 2013 12:22:01
Writing library : libebml v1.3.0 + libmatroska v1.4.0

Video
ID : 1
Format : AVC
Format/Info : Advanced Video Codec
Format profile : High@L4.1
Format settings, CABAC : Yes
Format settings, ReFrames : 4 frames
Codec ID : V_MPEG4/ISO/AVC
Duration : 1h 39mn
Bit rate : 4 915 Kbps
Width : 1 280 pixels
Height : 688 pixels
Display aspect ratio : 1.860
Frame rate : 60.000 fps
Color space : YUV
Chroma subsampling : 4:2:0
Bit depth : 8 bits
Scan type : Progressive
Bits/(Pixel*Frame) : 0.093
Stream size : 3.42 GiB (91%)
Title : slaventi-69 ( R.G. HD-Films | 60 fps )
Writing library : x264 core 130 r2273 b3065e6
Encoding settings : cabac=1 / ref=4 / deblock=1:0:0 / analyse=0x3:0x113 / me=umh / subme=9 / psy=1 / psy_rd=1.00:0.00 / mixed_ref=1 / me_range=24 / chroma_me=1 / trellis=2 / 8x8dct=1 / cqm=0 / deadzone=21,11 / fast_pskip=1 / chroma_qp_offset=-2 / threads=8 / lookahead_threads=1 / sliced_threads=0 / nr=0 / decimate=1 / interlaced=0 / bluray_compat=0 / constrained_intra=0 / bframes=4 / b_pyramid=2 / b_adapt=2 / b_bias=0 / direct=1 / weightb=1 / open_gop=0 / weightp=2 / keyint=250 / keyint_min=25 / scenecut=40 / intra_refresh=0 / rc_lookahead=40 / rc=crf / mbtree=1 / crf=17.0 / qcomp=0.60 / qpmin=0 / qpmax=69 / qpstep=4 / ip_ratio=1.40 / aq=1:1.00
Language : English
Default : Yes
Forced : No

Audio
ID : 2
Format : AC-3
Format/Info : Audio Coding 3
Mode extension : CM (complete main)
Codec ID : A_AC3
Duration : 1h 39mn
Bit rate mode : Constant
Bit rate : 384 Kbps
Channel(s) : 2 channels
Channel positions : Front: L R
Sampling rate : 48.0 KHz
Bit depth : 16 bits
Compression mode : Lossy
Stream size : 273 MiB (7%)
Title : MVO ( Карусель )
Language : Russian
Default : Yes
Forced : No

Text
ID : 3
Format : UTF-8
Codec ID : S_TEXT/UTF8
Codec ID/Info : UTF-8 Plain Text
Language : Russian
Default : No
Forced : No

Menu
00:00:00.000 : en:00:00:00.000
00:08:22.293 : en:00:08:22.293
00:16:06.924 : en:00:16:06.924
00:26:03.645 : en:00:26:03.645
00:40:07.697 : en:00:40:07.697
00:42:53.029 : en:00:42:53.029
00:53:40.592 : en:00:53:40.592
01:05:01.481 : en:01:05:01.481
01:08:57.925 : en:01:08:57.925
01:12:25.216 : en:01:12:25.216
01:14:30.299 : en:01:14:30.299
01:18:05.973 : en:01:18:05.973
01:24:45.622 : en:01:24:45.622
01:27:23.947 : en:01:27:23.947
01:32:15.155 : en:01:32:15.155
01:34:28.413 : en:01:34:28.413
Просьба к переливающим на другие сайты, в оформлении указывайте пожалуйста авторство рипа slaventi-69pb.wtf



Скачать через торрент http://pic.kartinco.top/images/11/vb7gn.jpg Скачать фильм [Сборник лучших фильмов] Жан-Клод Ван Дамм через торрент бесплантно в хорошем качестве Описание: В е должны состояться подпольные соревнования по восточным единоборствам, к которым готовится и один из американских ... 9.9 10 32
Info! Золотая раздача, скачанное не засчитывается.
Торрент: Зарегистрирован [2015-07-13 14:52] · скачан: 99 раз
Статус: √ проверено
Размер: 39.24 GB
Как cкачать? Как скачать через торрент | qTorrent

% Раздел Тема Автор DL S | L
Сборники на DVD и Сиквелы [DVDrip, WEB-DLRip, HDrip, BDRip] [ 6.53 GB ] Бэтмен: Начало / Batman Begins / Темный рыцарь / The Dark Knight / Темный рыцарь: Возрождение легенды / The Dark Knight Rises [200520082012 HDRip-AVC] DUB [] IMAX от R.G. PiratFilms Phoenix Скачать
1 | 0
Иностранные мультфильмы [ 1.45 GB ] Как приручить дракона / How to Train Your Dragon [2010 мультфильм HDRip-AVC] от R.G. nICE Films Demonessa Скачать
26 | 0
Фильмы 2012 [ 2.18 GB ] Джон Картер / John Carter [2012 HDRip-AVC] от R.G. nICE Films Phoenix Скачать
1 | 0
Иностранные мультфильмы [ 1.46 GB ] Суперсемейка / The Incredibles [2004 мультфильм HDRip-AVC] DUB [] от R.G. PiratFilms Demonessa Скачать
4 | 0
Иностранные мультфильмы [ 1.46 GB ] Рио / Rio [2011 мультфильм мюзикл HDRip-AVC] DUB [] от R.G. PiratFilms Demonessa Скачать
1 | 0
Фильмы 2001-2005 [ 2.17 GB ] Идальго: Погоня в пустыне / Hidalgo [2004 HDRip-AVC DUB AVO SUB] от R.G. PiratFilms кэп Скачать
1 | 0
Иностранные мультфильмы [ 1.46 GB ] ВАЛЛ·И / WALL·E [2008 мультфильм HDRip-AVC] от R.G. nICE Films Demonessa Скачать
1 | 0


Последний раз редактировалось: slaventi-69 (2015-07-13 17:44), всего редактировалось 1 раз

28-11-2019 20:33  

Отключить всю рекламу на сайте

13-07-2015 14:58 Скачать торрент  

slaventi-69, Шикарно, нет слов. Фанаты оценят.pb.wtf



13-07-2015 15:06 Скачать торрент  

Надеюсь, а то глаза уже вылазят. Еще 2 Часть потихоньку буду доделывать.
Оговорюсь сразу : Универсальный солдат: Квадрология - тут не будет, он есть в 1080p, со временем может и сделаю в 720p если будут желающие.
Смотрите в удовольствие.pb.wtf



13-07-2015 15:08 Скачать торрент  

золото от меняpb.wtf



13-07-2015 15:12 Скачать торрент  

а неудержимые 2 войдут ? хоть не главная роль ван дама но злодей из него отменный получилсяpb.wtf



13-07-2015 15:13 Скачать торрент  

и у него был не плохой фильм ,, не отступать и не сдаваться ,, тоже злодея там играл но фильм не плохойpb.wtf



13-07-2015 15:19 Скачать торрент  

wowwawow писал(а):

золото от меня

Благодарствуйте

"а неудержимые 2" - отдельный сборник есть, пользуйтесь поиском. ,, не отступать и не сдаваться ,, - качество не ахти, попробовал но понял что такое качество не пойдет, поэтому и не делал.pb.wtf



13-07-2015 16:47 Скачать торрент  

супер спасибо забираю в коллекциюpb.wtf



13-07-2015 16:49 Скачать торрент  

залейте подборку стивена сигалаpb.wtf



16-07-2015 02:40 Скачать торрент  

И Джеки Чана сборочку)pb.wtf



08-08-2015 19:09 Скачать торрент  

супер подборка-моя молодость!!!pb.wtf



22-03-2016 15:51 Скачать торрент  

pb.wtf



16-07-2018 06:29 Скачать торрент  

народ встаньте плиз на раздачу, если не трудноpb.wtf



    Дорогой пользователь! Огромная просьба, поблагодарите релизера, оцените раздачу и оставьте свои комментарий, если Вы скачали через торрент бесплатно! Внесите свою лепту в развитие PiratBit!
    Комментировать посты могут только пользователи прошедшие не сложную регистрацию
    Показать сообщения:    

    через торрент
    Скачать бесплатно
    скачать торрент
    смотреть онлайн
    Cкачать фильм бесплатно
    скачать торрент в хорошем качестве
    смотреть онлайн бесплатно в хорошем качестве


    Вы не можете начинать темы
    Вы не можете отвечать на сообщения
    Вы не можете редактировать свои сообщения
    Вы не можете удалять свои сообщения
    Вы не можете голосовать в опросах
    Вы не можете прикреплять файлы к сообщениям
    Вы можете скачивать файлы