Ссылка на приватное зеркало нашего сайта всего за 1$. Внимание количество ограничено!!!

2 сезон

iTunes

1 сезон

1

iTunes

iTunes

iTunes

1 сезон

RePack

30

ИГРА 18+

pack

ВАЖНО

!!Акция!!

Alien_RageХит недели

RePack

MK11
pack

Забери бонус

RePack

jed

!!Акция!!

Alien_Rage

RePack

fifa19

RePack

Assassins Creed: Odyssey

RePack

NEED FOR SPEED™ PAYBACK

4 сезон

9 сезон

Бесстыжие 9 сезон

Все сериалы

все сериалы на PB.wtf

RePack

FAR CRY 5
  

Лига справедливости: Боги и монстры / Justice League: Gods and Monsters (Сэм Лью) [2015, мультфильм, боевик, WEB-DLRip, Любительский (многоголосый) [ZM-SHOW] pb.wtf

Лига справедливости: Боги и монстры через торрент pb.wtf

Размер: 1.37 GB | Добавлен: 5 лет 3 мес. назад | Торрент скачан:361 раз
Скачать  

13-07-2015 16:01 Лига справедливости: Боги и монстры Скачать торрент  


Лига справедливости: Боги и монстры / Justice League: Gods and Monsters


ИНФОРМАЦИЯ:
Год выпуска:2015
Страна: США
Жанр: мультфильм, боевик
Продолжительность: 01:15:39
Перевод: Любительский (многоголосый) [ZM-SHOW]
Режиссер: Сэм Лью

В Ролях:


Пэйджет Брюстер (Lois Lane, озвучка), Майкл С. Холл (Batman / Kirk Langstrom, озвучка), Джейсон Айзекс (Lex Luthor, озвучка), Си Томас Хауэлл (Dr. Will Magnus, озвучка), Бенджамин Брэтт (Superman / Zod, озвучка), Тамара Тейлор (Wonder Woman / Bekka, озвучка)

Описание:
В альтернативной вселенной совершенно другие воплощения знаменитой супергеройской троицы после обвинения их в атаке на посольство оказываются в противостоянии с правительством.

  • Мировая премьера:28 июля 2015

    ТЕХ.ДАННЫЕ:
    Качество: WEB-DLRip
    Формат: AVI
    Видео кодек: XviD
    Аудио кодек: AC3
    Видео: XviD, 720x400 (16:9), 1897 kbps, 23,976 fps, 0,275 bpp
    Аудио №1: AC3 / 2.0 / 44 kHz / 192 kbps / Russian
    Аудио №2: AC3 / 5.1 / 48 kHz / 384 kbps / English


    Код:

    General
    Complete name                            : D:\Торенты\L1ga.Spr4v3dl1v0sti.B0gi.i.M0ns7ry.2015.L.WEBDLRip.avi
    Format                                   : AVI
    Format/Info                              : Audio Video Interleave
    File size                                : 1.37 GiB
    Duration                                 : 1h 15mn
    Overall bit rate                         : 2 587 Kbps
    Writing application                      : VirtualDubMod 1.5.10.3 | www.virtualdub-fr.org || (build 2550/release)
    Writing library                          : VirtualDubMod build 2550/release

    Video
    ID                                       : 0
    Format                                   : MPEG-4 Visual
    Format profile                           : Advanced Simple@L5
    Format settings, BVOP                    : 2
    Format settings, QPel                    : No
    Format settings, GMC                     : No warppoints
    Format settings, Matrix                  : Default (MPEG)
    Codec ID                                 : XVID
    Codec ID/Hint                            : XviD
    Duration                                 : 1h 15mn
    Bit rate                                 : 1 898 Kbps
    Width                                    : 720 pixels
    Height                                   : 400 pixels
    Display aspect ratio                     : 16:9
    Frame rate                               : 23.976 fps
    Color space                              : YUV
    Chroma subsampling                       : 4:2:0
    Bit depth                                : 8 bits
    Scan type                                : Progressive
    Compression mode                         : Lossy
    Bits/(Pixel*Frame)                       : 0.275
    Stream size                              : 1.00 GiB (73%)
    Writing library                          : XviD 1.2.1 (UTC 2008-12-04)

    Audio #1
    ID                                       : 1
    Format                                   : AC-3
    Format/Info                              : Audio Coding 3
    Mode extension                           : CM (complete main)
    Codec ID                                 : 2000
    Duration                                 : 1h 15mn
    Bit rate mode                            : Constant
    Bit rate                                 : 192 Kbps
    Channel(s)                               : 2 channels
    Channel positions                        : Front: L R
    Sampling rate                            : 44.1 KHz
    Bit depth                                : 16 bits
    Compression mode                         : Lossy
    Stream size                              : 104 MiB (7%)
    Alignment                                : Split accross interleaves

    Audio #2
    ID                                       : 2
    Format                                   : AC-3
    Format/Info                              : Audio Coding 3
    Mode extension                           : CM (complete main)
    Codec ID                                 : 2000
    Duration                                 : 1h 15mn
    Bit rate mode                            : Constant
    Bit rate                                 : 384 Kbps
    Channel(s)                               : 6 channels
    Channel positions                        : Front: L C R, Side: L R, LFE
    Sampling rate                            : 48.0 KHz
    Bit depth                                : 16 bits
    Compression mode                         : Lossy
    Stream size                              : 208 MiB (15%)
    Alignment                                : Split accross interleaves

    Скриншоты:


    © Оформление by Ворон
    pb.wtf



  • Скачать Лига справедливости: Боги и монстры через торрент http://pic.kartinco.top/images/6/ordi9.jpg Скачать фильм Лига справедливости: Боги и монстры через торрент бесплантно в хорошем качестве Описание: В альтернативной вселенной совершенно другие воплощения знаменитой супергеройской троицы после обвинения их в атаке на посольство ... 9.2 10 14
    Торрент: Зарегистрирован [2015-07-13 16:01] · скачан: 361 раз
    Статус: √ проверено
    Размер: 1.37 GB
    Как cкачать? Как скачать Лига справедливости: Боги и монстры через торрент | qTorrent

    % Раздел Тема Автор DL S | L
    T Иностранные мультфильмы [ 1.45 GB ] Лига справедливости: Боги и монстры / Justice League: Gods and Monsters [2015 мультфильм BDRip [Чистый звук] Twi7ter Скачать
    1 | 0
    Иностранные мультфильмы [ 3.11 GB ] Лига справедливости: Боги и монстры / Justice League: Gods and Monsters [2015 мультфильм WEB-DL 1080p Любительский [ZM-SHOW] Ворон Скачать
    1 | 0
    Иностранные мультфильмы [ 2.46 GB ] Лига справедливости: Боги и монстры / Justice League: Gods and Monsters [2015 мультфильм WEB-DL 720p Любительский [ZM-SHOW] Ворон Скачать
    1 | 0

    28-11-2019 20:33  

    Отключить всю рекламу на сайте

      Дорогой пользователь! Огромная просьба, поблагодарите релизера, оцените раздачу и оставьте свои комментарий, если Вы скачали Лига справедливости: Боги и монстры через торрент бесплатно! Внесите свою лепту в развитие PiratBit!
      Комментировать посты могут только пользователи прошедшие не сложную регистрацию
      Показать сообщения:    

      Лига справедливости: Боги и монстры через торрент
      Скачать бесплатно Лига справедливости: Боги и монстры
      Лига справедливости: Боги и монстры скачать торрент
      Лига справедливости: Боги и монстры смотреть онлайн
      Cкачать фильм Лига справедливости: Боги и монстры бесплатно
      Лига справедливости: Боги и монстры скачать торрент в хорошем качестве
      Лига справедливости: Боги и монстры смотреть онлайн бесплатно в хорошем качестве


      Вы не можете начинать темы
      Вы не можете отвечать на сообщения
      Вы не можете редактировать свои сообщения
      Вы не можете удалять свои сообщения
      Вы не можете голосовать в опросах
      Вы не можете прикреплять файлы к сообщениям
      Вы можете скачивать файлы