Ссылка на приватное зеркало нашего сайта всего за 1$. Внимание количество ограничено!!!

2 сезон

iTunes

1 сезон

1

iTunes

iTunes

iTunes

1 сезон

RePack

30

ИГРА 18+

pack

ВАЖНО

!!Акция!!

Alien_RageХит недели

RePack

MK11
pack

Забери бонус

RePack

jed

!!Акция!!

Alien_Rage

RePack

fifa19

RePack

Assassins Creed: Odyssey

RePack

NEED FOR SPEED™ PAYBACK

4 сезон

9 сезон

Бесстыжие 9 сезон

Все сериалы

все сериалы на PB.wtf

RePack

FAR CRY 5
  

Лига справедливости: Боги и монстры / Justice League: Gods and Monsters (Сэм Лью) [2015, мультфильм, боевик, WEB-DL 720p, Любительский (многоголосый) [ZM-SHOW] pb.wtf

Лига справедливости: Боги и монстры через торрент pb.wtf

Размер: 2.46 GB | Добавлен: 5 лет 3 мес. назад | Торрент скачан:127 раз
Скачать  

14-07-2015 03:21 Лига справедливости: Боги и монстры Скачать торрент  


Лига справедливости: Боги и монстры (видео) / Justice League: Gods and Monsters


ИНФОРМАЦИЯ:
Год выпуска:2015
Страна: США
Жанр: мультфильм, боевик
Продолжительность: 01:15:40
Перевод: Любительский (многоголосый) [ZM-SHOW]
Субтитры: английские,
Режиссер: Сэм Лью

В Ролях:


Пэйджет Брюстер (Lois Lane, озвучка), Майкл С. Холл (Batman / Kirk Langstrom, озвучка), Джейсон Айзекс (Lex Luthor, озвучка), Си Томас Хауэлл (Dr. Will Magnus, озвучка), Бенджамин Брэтт (Superman / Zod, озвучка), Тамара Тейлор (Wonder Woman / Bekka, озвучка)

Описание:
В альтернативной вселенной совершенно другие воплощения знаменитой супергеройской троицы после обвинения их в атаке на посольство оказываются в противостоянии с правительством.

  • Мировая премьера:28 июля 2015

    ТЕХ.ДАННЫЕ:
    Качество: WEB-DL 720p
    Формат: MKV
    Видео кодек: AVC
    Аудио кодек: AC3
    Видео: AVC, 1280x718 (16:9), 3986 kbps, 23,976 fps, 0,181 bpp
    Аудио №1: русский / AC3 / 2.0 / 44 kHz / 192 kbps / 16 bit ||
    Аудио №2: английский / AC3 / 5.1 / 48 kHz / 384 kbps / 16 bit
    Навигация по главам: есть


    Код:

    General
    Unique ID                                : 240212927718327609011765862348660440586 (0xB4B753B9B0D26462906C960F79AC7E0A)
    Complete name                            : D:\Торенты\L1ga.Spr4v3dl1v0sti.B0gi.i.M0ns7ry.2015.L.WEBDL.720p.mkv
    Format                                   : Matroska
    Format version                           : Version 4 / Version 2
    File size                                : 2.46 GiB
    Duration                                 : 1h 15mn
    Overall bit rate                         : 4 655 Kbps
    Encoded date                             : UTC 2015-07-13 14:47:29
    Writing application                      : mkvmerge v6.9.1 ('Blue Panther') 64bit built on Apr 18 2014 18:23:38
    Writing library                          : libebml v1.3.0 + libmatroska v1.4.1

    Video
    ID                                       : 1
    Format                                   : AVC
    Format/Info                              : Advanced Video Codec
    Format profile                           : High@L3.1
    Format settings, CABAC                   : No
    Format settings, ReFrames                : 2 frames
    Codec ID                                 : V_MPEG4/ISO/AVC
    Duration                                 : 1h 15mn
    Bit rate                                 : 3 987 Kbps
    Width                                    : 1 280 pixels
    Height                                   : 718 pixels
    Display aspect ratio                     : 16:9
    Frame rate                               : 23.976 fps
    Color space                              : YUV
    Chroma subsampling                       : 4:2:0
    Bit depth                                : 8 bits
    Scan type                                : Progressive
    Bits/(Pixel*Frame)                       : 0.181
    Stream size                              : 2.11 GiB (86%)
    Language                                 : English
    Default                                  : Yes
    Forced                                   : No
    Color primaries                          : BT.709-5, BT.1361, IEC 61966-2-4, SMPTE RP177
    Transfer characteristics                 : BT.709-5, BT.1361
    Matrix coefficients                      : BT.709-5, BT.1361, IEC 61966-2-4 709, SMPTE RP177

    Audio #1
    ID                                       : 2
    Format                                   : AC-3
    Format/Info                              : Audio Coding 3
    Mode extension                           : CM (complete main)
    Codec ID                                 : A_AC3
    Duration                                 : 1h 15mn
    Bit rate mode                            : Constant
    Bit rate                                 : 192 Kbps
    Channel(s)                               : 2 channels
    Channel positions                        : Front: L R
    Sampling rate                            : 44.1 KHz
    Bit depth                                : 16 bits
    Compression mode                         : Lossy
    Stream size                              : 104 MiB (4%)
    Language                                 : Russian
    Default                                  : Yes
    Forced                                   : No

    Audio #2
    ID                                       : 3
    Format                                   : AC-3
    Format/Info                              : Audio Coding 3
    Mode extension                           : CM (complete main)
    Codec ID                                 : A_AC3
    Duration                                 : 1h 15mn
    Bit rate mode                            : Constant
    Bit rate                                 : 384 Kbps
    Channel(s)                               : 6 channels
    Channel positions                        : Front: L C R, Side: L R, LFE
    Sampling rate                            : 48.0 KHz
    Bit depth                                : 16 bits
    Compression mode                         : Lossy
    Stream size                              : 208 MiB (8%)
    Language                                 : English
    Default                                  : No
    Forced                                   : No

    Text
    ID                                       : 4
    Format                                   : UTF-8
    Codec ID                                 : S_TEXT/UTF8
    Codec ID/Info                            : UTF-8 Plain Text
    Language                                 : English
    Default                                  : No
    Forced                                   : No

    Menu
    00:00:00.000                             : en:1
    00:09:13.000                             : en:2
    00:19:45.000                             : en:3
    00:29:25.000                             : en:4
    00:39:32.000                             : en:5
    00:49:10.000                             : en:6
    01:00:26.000                             : en:7
    01:09:52.000                             : en:8
    01:12:33.000                             : en:9

    Скриншоты:


    © Оформление by Ворон
    pb.wtf



  • Скачать Лига справедливости: Боги и монстры через торрент http://pic.kartinco.top/images/6/ordi9.jpg Скачать фильм Лига справедливости: Боги и монстры через торрент бесплантно в хорошем качестве Описание: В альтернативной вселенной совершенно другие воплощения знаменитой супергеройской троицы после обвинения их в атаке на посольство ... 8.3 10 7
    Торрент: Зарегистрирован [2015-07-14 03:21] · скачан: 127 раз
    Статус: √ проверено
    Размер: 2.46 GB
    Как cкачать? Как скачать Лига справедливости: Боги и монстры через торрент | qTorrent

    % Раздел Тема Автор DL S | L
    T Иностранные мультфильмы [ 1.45 GB ] Лига справедливости: Боги и монстры / Justice League: Gods and Monsters [2015 мультфильм BDRip [Чистый звук] Twi7ter Скачать
    2 | 0
    Иностранные мультфильмы [ 3.11 GB ] Лига справедливости: Боги и монстры / Justice League: Gods and Monsters [2015 мультфильм WEB-DL 1080p Любительский [ZM-SHOW] Ворон Скачать
    1 | 0
    Иностранные мультфильмы [ 1.37 GB ] Лига справедливости: Боги и монстры / Justice League: Gods and Monsters [2015 мультфильм WEB-DLRip Любительский [ZM-SHOW] Ворон Скачать
    1 | 0

    28-11-2019 20:33  

    Отключить всю рекламу на сайте

      Дорогой пользователь! Огромная просьба, поблагодарите релизера, оцените раздачу и оставьте свои комментарий, если Вы скачали Лига справедливости: Боги и монстры через торрент бесплатно! Внесите свою лепту в развитие PiratBit!
      Комментировать посты могут только пользователи прошедшие не сложную регистрацию
      Показать сообщения:    

      Лига справедливости: Боги и монстры через торрент
      Скачать бесплатно Лига справедливости: Боги и монстры
      Лига справедливости: Боги и монстры скачать торрент
      Лига справедливости: Боги и монстры смотреть онлайн
      Cкачать фильм Лига справедливости: Боги и монстры бесплатно
      Лига справедливости: Боги и монстры скачать торрент в хорошем качестве
      Лига справедливости: Боги и монстры смотреть онлайн бесплатно в хорошем качестве


      Вы не можете начинать темы
      Вы не можете отвечать на сообщения
      Вы не можете редактировать свои сообщения
      Вы не можете удалять свои сообщения
      Вы не можете голосовать в опросах
      Вы не можете прикреплять файлы к сообщениям
      Вы можете скачивать файлы