Ссылка на приватное зеркало нашего сайта всего за 1$. Внимание количество ограничено!!!

2 сезон

iTunes

1 сезон

1

2 сезон

2 сезон

iTunes

1 сезон

RePack

30

Новинка

ВАЖНО

ИГРА 18+

pack

RePack

MK11
pack

Забери бонус

RePack

jed

!!Акция!!

Alien_Rage

RePack

fifa19

RePack

Assassins Creed: Odyssey

RePack

NEED FOR SPEED™ PAYBACK

4 сезон

9 сезон

Бесстыжие 9 сезон

Все сериалы

все сериалы на PB.wtf

RePack

FAR CRY 5
  

Остров динозавров / Dinosaur Island (Мэтт Драммонд) [2014, фантастика, приключения, семейный, BDRip 720p] VO pb.wtf

Остров динозавров через торрент pb.wtf

Размер: 2.39 GB | Добавлен: 5 лет 4 мес. назад | Торрент скачан:82 раза
Скачать  

14-07-2015 09:01 Остров динозавров Скачать торрент  


Остров динозавров / Dinosaur Island


ИНФОРМАЦИЯ:
Год выпуска:2014
Страна: Австралия
Жанр: фантастика, приключения, семейный
Продолжительность: 01:23:02
Перевод: Любительский (одноголосый) [Xixidok]
Режиссер: Мэтт Драммонд

В Ролях:
Darius Williams (Lucas Winton), Kate Rasmussen (Kathryn Rose Thompson), Joe Bistaveous (Ernest), Juliette Frederick (Grandma), Vincent Naviti (Boy Chief), Пол Падагас (Jack Winton), Nicole Yardley (Lydia Winton)

Описание:
Лукас, тринадцатилетний подросток, никак не ожидал больших приключений, отправляясь на очередные каникулы. Но судьба решила по-своему: самолет, на котором он летел, попадает в катастрофу. Очнувшись на странном острове, главный герой с ужасом узнает, что на этом клочке земли обитают доисторические рептилии.

  • Мировая премьера:29 сентября 2014

    ТЕХ.ДАННЫЕ:
    Качество: BDRip 720p
    Формат: MKV
    Видео кодек: AVC
    Аудио кодек: AC3
    Видео: AVC, 1280x720 (16:9), 3202 kbps, 23,976 fps, 0,145 bpp
    Аудио №1: русский / AC3 / 2.0 / 48 kHz / 192 kbps / 16 bit ||
    Аудио №2: английский / AC3 / 5.1 / 48 kHz / 640 kbps / 16 bit
    Навигация по главам: есть


    Код:

    General
    Unique ID                                : 248632766339010082461477108381642554518 (0xBB0CEDD1F2E028FF968A3F7C577E7C96)
    Complete name                            : D:\Торенты\0CtP0B.dYH03aBP0B.2014.L1.BDRip.720p.mkv
    Format                                   : Matroska
    Format version                           : Version 4 / Version 2
    File size                                : 2.39 GiB
    Duration                                 : 1h 23mn
    Overall bit rate                         : 4 116 Kbps
    Encoded date                             : UTC 2015-07-14 07:36:53
    Writing application                      : mkvmerge v6.5.0 ('Isn't she lovely') built on Oct 20 2013 12:50:05
    Writing library                          : libebml v1.3.0 + libmatroska v1.4.1

    Video
    ID                                       : 1
    Format                                   : AVC
    Format/Info                              : Advanced Video Codec
    Format profile                           : High@L4.1
    Format settings, CABAC                   : Yes
    Format settings, ReFrames                : 10 frames
    Codec ID                                 : V_MPEG4/ISO/AVC
    Duration                                 : 1h 23mn
    Bit rate                                 : 3 202 Kbps
    Width                                    : 1 280 pixels
    Height                                   : 720 pixels
    Display aspect ratio                     : 16:9
    Frame rate                               : 23.976 fps
    Color space                              : YUV
    Chroma subsampling                       : 4:2:0
    Bit depth                                : 8 bits
    Scan type                                : Progressive
    Bits/(Pixel*Frame)                       : 0.145
    Stream size                              : 1.86 GiB (78%)
    Writing library                          : x264 core 146 r2538 121396c
    Encoding settings                        : cabac=1 / ref=10 / deblock=1:-3:-3 / analyse=0x3:0x113 / me=umh / subme=8 / psy=1 / psy_rd=1.00:0.00 / mixed_ref=1 / me_range=16 / chroma_me=1 / trellis=1 / 8x8dct=1 / cqm=0 / deadzone=21,11 / fast_pskip=1 / chroma_qp_offset=-2 / threads=6 / lookahead_threads=2 / sliced_threads=0 / nr=0 / decimate=1 / interlaced=0 / bluray_compat=0 / constrained_intra=0 / bframes=7 / b_pyramid=2 / b_adapt=2 / b_bias=0 / direct=3 / weightb=1 / open_gop=0 / weightp=2 / keyint=250 / keyint_min=23 / scenecut=40 / intra_refresh=0 / rc_lookahead=50 / rc=crf / mbtree=1 / crf=16.0 / qcomp=0.60 / qpmin=0 / qpmax=69 / qpstep=4 / ip_ratio=1.40 / aq=1:1.00
    Language                                 : English
    Default                                  : Yes
    Forced                                   : No

    Audio #1
    ID                                       : 2
    Format                                   : AC-3
    Format/Info                              : Audio Coding 3
    Mode extension                           : CM (complete main)
    Codec ID                                 : A_AC3
    Duration                                 : 1h 23mn
    Bit rate mode                            : Constant
    Bit rate                                 : 192 Kbps
    Channel(s)                               : 2 channels
    Channel positions                        : Front: L R
    Sampling rate                            : 48.0 KHz
    Bit depth                                : 16 bits
    Compression mode                         : Lossy
    Stream size                              : 114 MiB (5%)
    Language                                 : Russian
    Default                                  : Yes
    Forced                                   : No

    Audio #2
    ID                                       : 3
    Format                                   : AC-3
    Format/Info                              : Audio Coding 3
    Mode extension                           : CM (complete main)
    Codec ID                                 : A_AC3
    Duration                                 : 1h 23mn
    Bit rate mode                            : Constant
    Bit rate                                 : 640 Kbps
    Channel(s)                               : 6 channels
    Channel positions                        : Front: L C R, Side: L R, LFE
    Sampling rate                            : 48.0 KHz
    Bit depth                                : 16 bits
    Compression mode                         : Lossy
    Stream size                              : 380 MiB (16%)
    Language                                 : English
    Default                                  : No
    Forced                                   : No

    Menu
    00:00:00.000                             : en:00:00:00.000
    00:07:09.304                             : en:00:07:09.304
    00:11:38.865                             : en:00:11:38.865
    00:20:39.280                             : en:00:20:39.280
    00:27:03.914                             : en:00:27:03.914
    00:33:10.447                             : en:00:33:10.447
    00:41:58.474                             : en:00:41:58.474
    00:50:40.120                             : en:00:50:40.120
    00:56:27.968                             : en:00:56:27.968
    01:04:33.995                             : en:01:04:33.995
    01:10:38.568                             : en:01:10:38.568
    01:15:36.323                             : en:01:15:36.323

    Скриншоты:


    © Оформление by Ворон
    pb.wtf
    !Ворон писал(а):

    Сэмпл с avi рипа Остров динозавров / Dinosaur Island



  • Скачать Остров динозавров через торрент http://pic.kartinco.top/images/6/ordi9.jpg Скачать фильм Остров динозавров через торрент бесплантно в хорошем качестве Описание: Лукас, тринадцатилетний подросток, никак не ожидал больших приключений, отправляясь на очередные каникулы. Но судьба решила ... 8.2 10 5
    Торрент: Зарегистрирован [2015-07-14 09:01] · скачан: 82 раз
    Статус: T временная
    Размер: 2.39 GB
    Как cкачать? Как скачать Остров динозавров через торрент | qTorrent

    % Раздел Тема Автор DL S | L
    Фильмы (Blu-ray, BD-Remux, HDDVD) [ 16.25 GB ] Остров динозавров / Dinosaur Island [2014 BDRemux 1080p от NovaLan] VO Ворон Скачать
    1 | 0
    T Фильмы 2014 (Звук TS, Cam, VO, DVO) [ 1.64 GB ] Остров динозавров / Dinosaur Island [2014 HDRip-AVC от ExKinoRay] VO Ворон Скачать
    1 | 0
    T Фильмы 2014 (Звук TS, Cam, VO, DVO) [ 1.46 GB ] Остров динозавров / Dinosaur Island [2014 HDRip] VO Ворон Скачать
    1 | 0

    28-11-2019 20:33  

    Отключить всю рекламу на сайте

      Дорогой пользователь! Огромная просьба, поблагодарите релизера, оцените раздачу и оставьте свои комментарий, если Вы скачали Остров динозавров через торрент бесплатно! Внесите свою лепту в развитие PiratBit!
      Комментировать посты могут только пользователи прошедшие не сложную регистрацию
      Показать сообщения:    

      Остров динозавров через торрент
      Скачать бесплатно Остров динозавров
      Остров динозавров скачать торрент
      Остров динозавров смотреть онлайн
      Cкачать фильм Остров динозавров бесплатно
      Остров динозавров скачать торрент в хорошем качестве
      Остров динозавров смотреть онлайн бесплатно в хорошем качестве


      Вы не можете начинать темы
      Вы не можете отвечать на сообщения
      Вы не можете редактировать свои сообщения
      Вы не можете удалять свои сообщения
      Вы не можете голосовать в опросах
      Вы не можете прикреплять файлы к сообщениям
      Вы можете скачивать файлы