2 сезон

iTunes

1 сезон

1

iTunes

iTunes

iTunes

1 сезон

RePack

30

ИГРА 18+

pack

ВАЖНО

!!Акция!!

Alien_RageХит недели

RePack

MK11
pack

Забери бонус

RePack

jed

!!Акция!!

Alien_Rage

RePack

fifa19

RePack

Assassins Creed: Odyssey

RePack

NEED FOR SPEED™ PAYBACK

4 сезон

9 сезон

Бесстыжие 9 сезон

Все сериалы

все сериалы на PB.wtf

RePack

FAR CRY 5
  

Я вижу, я вижу / Ich seh, Ich seh (Северин Фиала, Вероника Франц) [2014, Ужасы, фэнтези, триллер, драма, DVDRip-AVC] VO pb.wtf

Я вижу, я вижу через торрент pb.wtf

Размер: 1.03 GB | Добавлен: 5 лет 3 мес. назад | Торрент скачан:121 раз
Скачать  

14-07-2015 12:57 Я вижу, я вижу Скачать торрент  

Информация о фильме

Название: Я вижу, я вижу (Спокойной ночи, мамочка)

Оригинальное название: Ich seh, Ich seh (Goodnight Mommy)

Год выхода: 2014

Жанр: Ужасы, фэнтези, триллер, драма
Страна: Австрия

Продолжительность: 01:39:00

Перевод: Перевод фильма San-ya ака Александр Голованов

Озвучка: Любительский (одноголосый закадровый) Хихикающий доктор
Режиссер: Северин Фиала, Вероника Франц

В ролях: Сюзанна Вуэст, Элиас Шварц, Лукас Шварц, Ганс Эшер, Эльфрида Шатц, Карл Паркер, Кристиан Штайндль, Кристиан Шац, Эрвин Шмальзбаузер

Описание:

На окраине кукурузного поля в сельской глуши стоит дом. 10-летние близнецы ждут возвращения своей матери. Когда она приходит, ее лицо закрывают бинты после пластической операции. С этого момента все меняется — отчужденная и холодная, она постепенно изолирует их семью от внешнего мира. Мальчики начинают подозревать, что эта женщина — не их мать, и пытаются выяснить правду любой ценой.



Файл

Качество: DVDRip-AVC

Формат:MKV
Видео кодек: AVC
Аудио кодек: AC3
Видео: MPEG-4 AVC, 1474 kb/s, 720x428@1024x428

Звук: MP3, 44.1 KHz, 2 ch, 192 Kbps, CBR
Общее
Уникальный идентификатор : 223869608692646569989947164939408464225 (0xA86BB7E2A2D5FFB38FEC7AD962195961)
Полное имя : D:\Торенты\Ich Seh, Ich Seh.2014.Xixidok.mkv
Формат : Matroska
Версия формата : Version 1
Размер файла : 1,03 Гбайт
Продолжительность : 1 ч. 39 м.
Общий поток : 1474 Кбит/сек
Дата кодирования : UTC 2015-07-14 10:24:56
Программа кодирования : mkvmerge v2.3.0 ('Freak U') built on Sep 8 2008 18:32:16
Библиотека кодирования : libebml v0.7.7 + libmatroska v0.8.1

Видео
Идентификатор : 1
Формат : AVC
Формат/Информация : Advanced Video Codec
Профиль формата : High@L4.1
Параметр CABAC формата : Да
Параметр ReFrames формата : 4 кадра
Идентификатор кодека : V_MPEG4/ISO/AVC
Продолжительность : 1 ч. 39 м.
Битрейт : 1253 Кбит/сек
Ширина : 720 пикселей
Высота : 428 пикселей
Соотношение сторон : 2,40:1
Соотношение сторон в оригинале : 1,682
Режим частоты кадров : Постоянный
Частота кадров : 25,000 кадров/сек
Цветовое пространство : YUV
Субдискретизация насыщенности : 4:2:0
Битовая глубина : 8 бит
Тип развёртки : Прогрессивная
Бит/(Пиксели*Кадры) : 0.163
Размер потока : 894 Мбайт (85%)
Библиотека кодирования : x264 core 144 r2525 40bb568
Настройки программы : cabac=1 / ref=5 / deblock=1:-1:-1 / analyse=0x3:0x133 / me=umh / subme=7 / psy=1 / psy_rd=1.00:0.15 / mixed_ref=1 / me_range=16 / chroma_me=1 / trellis=1 / 8x8dct=1 / cqm=0 / deadzone=21,11 / fast_pskip=1 / chroma_qp_offset=-3 / threads=12 / lookahead_threads=2 / sliced_threads=0 / nr=0 / decimate=0 / interlaced=0 / bluray_compat=0 / constrained_intra=0 / bframes=3 / b_pyramid=1 / b_adapt=1 / b_bias=0 / direct=1 / weightb=1 / open_gop=0 / weightp=2 / keyint=250 / keyint_min=25 / scenecut=40 / intra_refresh=0 / rc_lookahead=40 / rc=crf / mbtree=1 / crf=18.0 / qcomp=0.60 / qpmin=0 / qpmax=69 / qpstep=4 / vbv_maxrate=62500 / vbv_bufsize=78125 / crf_max=0.0 / nal_hrd=none / filler=0 / ip_ratio=1.40 / aq=1:1.00
Default : Да
Forced : Нет
Основные цвета : BT.601 PAL
Характеристики трансфера : BT.709
Коэффициенты матрицы : BT.601
colour_range : Limited

Аудио
Идентификатор : 2
Формат : MPEG Audio
Версия формата : Version 1
Профиль формата : Layer 3
Идентификатор кодека : A_MPEG/L3
Идентификатор кодека/Подсказка : MP3
Продолжительность : 1 ч. 39 м.
Вид битрейта : Постоянный
Битрейт : 192 Кбит/сек
Каналы : 2 канала
Частота : 44,1 КГц
Метод сжатия : С потерями
Задержка видео : -80 мс.
Размер потока : 137 Мбайт (13%)
Default : Да
Forced : Нет

Меню
00:00:00.000 : :Chapter 1
00:06:16.520 : :Chapter 2
00:12:59.760 : :Chapter 3
00:19:58.160 : :Chapter 4
00:28:02.440 : :Chapter 5
00:34:00.920 : :Chapter 6
00:45:17.000 : :Chapter 7
00:51:55.320 : :Chapter 8
01:02:26.280 : :Chapter 9
01:08:09.280 : :Chapter 10
01:21:00.240 : :Chapter 11
01:29:11.880 : :Chapter 12
pb.wtf



Скачать Я вижу, я вижу через торрент http://i48.fastpic.ru/big/2015/0714/47/76815b6574519fb3ccd53392eae61447.jpg Скачать фильм Я вижу, я вижу через торрент бесплантно в хорошем качестве Описание: На окраине кукурузного поля в сельской глуши стоит дом. 10-летние близнецы ждут возвращения своей матери. Когда она приходит, ее ... 9.8 10 6
Торрент: Зарегистрирован [2015-07-14 12:57] · скачан: 121 раз
Статус: T временная
Размер: 1.03 GB
Как cкачать? Как скачать Я вижу, я вижу через торрент | qTorrent

% Раздел Тема Автор DL S | L
Фильмы 2014 [DVDrip, WEB-DLRip, HDrip] [ 2.11 GB ] Спокойной ночи мамочка / Ich seh ich seh [2014 BDRip] [MVO] killermax2013 Скачать
1 | 0
T Фильмы 2014 (Звук TS, Cam, VO, DVO) [ 1.36 GB ] Я вижу я вижу / Ich seh Ich seh [2014 DVDRip] VO Ворон Скачать
1 | 0

28-11-2019 20:33  

Отключить всю рекламу на сайте

    Дорогой пользователь! Огромная просьба, поблагодарите релизера, оцените раздачу и оставьте свои комментарий, если Вы скачали Я вижу, я вижу через торрент бесплатно! Внесите свою лепту в развитие PiratBit!
    Комментировать посты могут только пользователи прошедшие не сложную регистрацию
    Показать сообщения:    

    Я вижу, я вижу через торрент
    Скачать бесплатно Я вижу, я вижу
    Я вижу, я вижу скачать торрент
    Я вижу, я вижу смотреть онлайн
    Cкачать фильм Я вижу, я вижу бесплатно
    Я вижу, я вижу скачать торрент в хорошем качестве
    Я вижу, я вижу смотреть онлайн бесплатно в хорошем качестве


    Вы не можете начинать темы
    Вы не можете отвечать на сообщения
    Вы не можете редактировать свои сообщения
    Вы не можете удалять свои сообщения
    Вы не можете голосовать в опросах
    Вы не можете прикреплять файлы к сообщениям
    Вы можете скачивать файлы