Ссылка на приватное зеркало нашего сайта всего за 1$. Внимание количество ограничено!!!

2 сезон

iTunes

1 сезон

1

iTunes

iTunes

iTunes

1 сезон

RePack

30

ИГРА 18+

pack

ВАЖНО

!!Акция!!

Alien_RageХит недели

RePack

MK11
pack

Забери бонус

RePack

jed

!!Акция!!

Alien_Rage

RePack

fifa19

RePack

Assassins Creed: Odyssey

RePack

NEED FOR SPEED™ PAYBACK

4 сезон

9 сезон

Бесстыжие 9 сезон

Все сериалы

все сериалы на PB.wtf

RePack

FAR CRY 5
  

Остров динозавров / Dinosaur Island (Мэтт Драммонд) [2014, фантастика, приключения, семейный, HDRip-AVC от ExKinoRay] VO pb.wtf

Остров динозавров через торрент pb.wtf

Размер: 1.64 GB | Добавлен: 5 лет 3 мес. назад | Торрент скачан:165 раз
Скачать  

14-07-2015 13:02 Остров динозавров Скачать торрент  

Информация о фильме

Название: Остров динозавров

Оригинальное название: Dinosaur Island

Год выпуска: 2014

Выпущено: Австралия, Extinct Productions

Продолжительность: 01:26:43

Перевод фильма: Enigma

Озвучено: Любительский одноголосый (Хихикающий доктор)
Субтитры: Английские, испанские

Работа со звуком: Sergei7721

Жанр: Детский, фантастика, приключения, семейный

Режиссер: Матт Друммонд

В ролях: Дариус Вильямс, Кэйт Расмуссен, Джо Виставеос, Джульет Фредерик, Винсент Навити, Пол Падагас, Николь Ярдли

Описание: Лукас, тринадцатилетний подросток, никак не ожидал больших приключений, отправляясь на очередные каникулы. Но судьба решила по-своему: самолет, на котором он летел, попадает в катастрофу. Очнувшись на странном острове, главный герой с ужасом узнает, что на этом клочке земли обитают доисторические рептилии.



Файл

Качество: HDRip (AVC)
Формат:MKV
Видео кодек: AVC
Аудио кодек: AC3
Видео: MPEG-4 AVC, 1925 Кбит/с, 1024x576, 23.976 fps
Аудио1: Русский (АС3, 6 ch, 448 Кбит/с) , 48.0 KHz
Аудио2: английский (АС3, 6 ch, 448 Кбит/с), 48.0 KHz
General

Unique ID : 174772665668046004768746965584027493208 (0x837BFDB3F2D3CDD2911AB173EBE6A358)

Complete name : C:Dinosaur.island.2014.xixidok.HDRip.AVC.ExKinoRay.mkv

Format : Matroska

Format version : Version 4 / Version 2

File size : 1.64 GiB

Duration : 1h 23mn

Overall bit rate : 2 819 Kbps

Movie name : Dinosaur Island 2014 from ExKinoRay

Encoded date : UTC 2015-07-14 03:19:11

Writing application : mkvmerge v6.6.0 ('The Edge Of The In Between') built on Dec 1 2013 17:55:00

Writing library : libebml v1.3.0 + libmatroska v1.4.1

Video

ID : 1

Format : AVC

Format/Info : Advanced Video Codec

Format profile : High@L4.1

Format settings, CABAC : Yes

Format settings, ReFrames : 12 frames

Codec ID : V_MPEG4/ISO/AVC

Duration : 1h 23mn

Bit rate : 1 925 Kbps

Width : 1 024 pixels

Height : 576 pixels

Display aspect ratio : 16:9

Frame rate mode : Constant

Frame rate : 23.976 fps

Color space : YUV

Chroma subsampling : 4:2:0

Bit depth : 8 bits

Scan type : Progressive

Bits/(Pixel*Frame) : 0.136

Stream size : 1.08 GiB (66%)

Title : Enigma

Writing library : x264 core 133 r2334 a3ac64b

Encoding settings : cabac=1 / ref=12 / deblock=1:-3:-3 / analyse=0x3:0x113 / me=umh / subme=10 / psy=1 / psy_rd=1.05:0.15 / mixed_ref=1 / me_range=32 / chroma_me=1 / trellis=2 / 8x8dct=1 / cqm=0 / deadzone=21,11 / fast_pskip=0 / chroma_qp_offset=-3 / threads=12 / lookahead_threads=2 / sliced_threads=0 / nr=0 / decimate=0 / interlaced=0 / bluray_compat=0 / constrained_intra=0 / bframes=9 / b_pyramid=2 / b_adapt=2 / b_bias=0 / direct=3 / weightb=1 / open_gop=0 / weightp=2 / keyint=240 / keyint_min=23 / scenecut=40 / intra_refresh=0 / rc_lookahead=40 / rc=2pass / mbtree=0 / bitrate=1925 / ratetol=1.0 / qcomp=0.65 / qpmin=0 / qpmax=51 / qpstep=4 / cplxblur=20.0 / qblur=0.5 / vbv_maxrate=50000 / vbv_bufsize=62500 / nal_hrd=none / ip_ratio=1.40 / pb_ratio=1.30 / aq=1:1.00

Language : English

Default : Yes

Forced : No

Color primaries : BT.709

Transfer characteristics : BT.709

Matrix coefficients : BT.709

Audio #1

ID : 2

Format : AC-3

Format/Info : Audio Coding 3

Mode extension : CM (complete main)

Format settings, Endianness : Big

Codec ID : A_AC3

Duration : 1h 23mn

Bit rate mode : Constant

Bit rate : 448 Kbps

Channel(s) : 6 channels

Channel positions : Front: L C R, Side: L R, LFE

Sampling rate : 48.0 KHz

Bit depth : 16 bits

Compression mode : Lossy

Stream size : 266 MiB (16%)

Title : xixidok

Language : Russian

Default : Yes

Forced : No

Audio #2

ID : 3

Format : AC-3

Format/Info : Audio Coding 3

Mode extension : CM (complete main)

Format settings, Endianness : Big

Codec ID : A_AC3

Duration : 1h 23mn

Bit rate mode : Constant

Bit rate : 448 Kbps

Channel(s) : 6 channels

Channel positions : Front: L C R, Side: L R, LFE

Sampling rate : 48.0 KHz

Bit depth : 16 bits

Compression mode : Lossy

Stream size : 266 MiB (16%)

Language : English

Default : No

Forced : No

Text #1

ID : 4

Format : UTF-8

Codec ID : S_TEXT/UTF8

Codec ID/Info : UTF-8 Plain Text

Language : English

Default : No

Forced : No

Text #2

ID : 5

Format : UTF-8

Codec ID : S_TEXT/UTF8

Codec ID/Info : UTF-8 Plain Text

Language : Spanish

Default : No

Forced : No

Menu

00:00:00.000 : en:00:00:00.000

00:07:09.303 : en:00:07:09.303

00:11:38.864 : en:00:11:38.864

00:20:39.279 : en:00:20:39.279

00:27:03.913 : en:00:27:03.913

00:33:10.446 : en:00:33:10.446

00:41:58.474 : en:00:41:58.474

00:50:40.120 : en:00:50:40.120

00:56:27.967 : en:00:56:27.967

01:04:33.995 : en:01:04:33.995

01:10:38.567 : en:01:10:38.567

01:15:36.323 : en:01:15:36.323
pb.wtf



Скачать Остров динозавров через торрент http://s019.radikal.ru/i611/1507/8c/447780ec0b2d.jpg Скачать фильм Остров динозавров через торрент бесплантно в хорошем качестве Описание: Лукас, тринадцатилетний подросток, никак не ожидал больших приключений, отправляясь на очередные каникулы. Но судьба решила ... 8.7 10 9
Торрент: Зарегистрирован [2015-07-14 13:02] · скачан: 165 раз
Статус: T временная
Размер: 1.64 GB
Как cкачать? Как скачать Остров динозавров через торрент | qTorrent

% Раздел Тема Автор DL S | L
Фильмы (Blu-ray, BD-Remux, HDDVD) [ 16.25 GB ] Остров динозавров / Dinosaur Island [2014 BDRemux 1080p от NovaLan] VO Ворон Скачать
1 | 0
T Фильмы 2014 (Звук TS, Cam, VO, DVO) [ 1.46 GB ] Остров динозавров / Dinosaur Island [2014 HDRip] VO Ворон Скачать
1 | 0
T Фильмы [HD 720p, 1080p] (Звук Cam, VO, DVO) [ 2.39 GB ] Остров динозавров / Dinosaur Island [2014 BDRip 720p] VO Ворон Скачать
1 | 0

28-11-2019 20:33  

Отключить всю рекламу на сайте

14-07-2015 13:36 Остров динозавров Скачать торрент  

! полное ! Даже не стоит качать!pb.wtf



    Дорогой пользователь! Огромная просьба, поблагодарите релизера, оцените раздачу и оставьте свои комментарий, если Вы скачали Остров динозавров через торрент бесплатно! Внесите свою лепту в развитие PiratBit!
    Комментировать посты могут только пользователи прошедшие не сложную регистрацию
    Показать сообщения:    

    Остров динозавров через торрент
    Скачать бесплатно Остров динозавров
    Остров динозавров скачать торрент
    Остров динозавров смотреть онлайн
    Cкачать фильм Остров динозавров бесплатно
    Остров динозавров скачать торрент в хорошем качестве
    Остров динозавров смотреть онлайн бесплатно в хорошем качестве


    Вы не можете начинать темы
    Вы не можете отвечать на сообщения
    Вы не можете редактировать свои сообщения
    Вы не можете удалять свои сообщения
    Вы не можете голосовать в опросах
    Вы не можете прикреплять файлы к сообщениям
    Вы можете скачивать файлы