2 сезон

iTunes

1 сезон

1

iTunes

iTunes

iTunes

1 сезон

RePack

30

ИГРА 18+

pack

ВАЖНО

!!Акция!!

Alien_RageХит недели

RePack

MK11
pack

Забери бонус

RePack

jed

!!Акция!!

Alien_Rage

RePack

fifa19

RePack

Assassins Creed: Odyssey

RePack

NEED FOR SPEED™ PAYBACK

4 сезон

9 сезон

Бесстыжие 9 сезон

Все сериалы

все сериалы на PB.wtf

RePack

FAR CRY 5
  

Белая мгла / Whiteout (Доминик Сена / Dominic Sena) [2009, боевик, триллер, криминал, BDRip 720p от potroks] DUB Лицензия pb.wtf

Белая мгла через торрент pb.wtf

Размер: 4.42 GB | Добавлен: 5 лет 3 мес. назад | Торрент скачан:128 раз
Скачать  

14-07-2015 19:39 Белая мгла Скачать торрент  

Белая мгла / Whiteout
«Это твой последний вздох»
Год выпуска: 2009
Страна: США, Канада, Франция, Турция / Warner Bros. Pictures Co., Dark Castle Entertainment
Жанр: Боевик, триллер, криминал, детектив
Продолжительность: 01:40:40
Перевод: Дубляж [Blu-Ray EUR]
Субтитры: Русские (полные + форс.), английские (Full + SDH)
Режиссер: Доминик Сена / Dominic Sena
В ролях:

Кейт Бекинсейл (Carrie Stetko), Гэбриел Махт (Robert Pryce), Том Скеррит (Dr. John Fury), Коламбус Шорт (Delfy), Алекс О’Локлин (Russell Haden), Шон Дойл (Sam Murphy), Джоэль Келлер (Jack), Джесси Тодд (Rubin), Артур Холден (McGuire), Эрин Хикок (Rhonda), Башар Рахаль (Russian Pilot), Джулиан Кэйн (Russian Co-pilot)
Описание: У служительницы закона Кэрри есть всего три дня на то, чтобы с помощью пилота самолета поймать первого серийного убийцу в истории Антарктиды, после чего континент накроет полярная ночь...

Качество: BDRip 720p
Формат: MKV
Видео кодек: AVC
Аудио кодек: AC3
Видео: AVC, 1280x534 (2.40:1), 4627 kbps, 23,976 fps, 0,282 bpp
Аудио #1: русский / AC3 / 5.1 / 48 kHz / 640 kbps / 16 bit
Аудио #2: украинский / AC3 / 5.1 / 48 kHz / 384 kbps / 16 bit
Аудио #3: английский / AC3 / 5.1 / 48 kHz / 640 kbps / 16 bit
Навигация по главам: есть
Релиз группы:
Автор рипа: potroks

Код:

Общее
Уникальный идентификатор : 175116594093098555230933988219842079022 (0x83BE3AAEF7D12BB6989E21D0D6CE292E)
Полное имя : Belaya.Mgla.2009.TRIPLE.BDRip.720p.-HELLYWOOD.mkv
Формат : Matroska
Версия формата : Version 4 / Version 2
Размер файла : 4,42 Гбайт
Продолжительность : 1 ч. 40 м.
Общий поток : 6288 Кбит/сек
Название фильма : Whiteout (2009) - HELLYWOOD
Дата кодирования : UTC 2015-07-14 18:14:43
Программа кодирования : mkvmerge v5.9.0 ('On The Loose') built on Dec 15 2012 16:39:58
Библиотека кодирования : libebml v1.3.0 + libmatroska v1.4.0

Видео
Идентификатор : 1
Формат : AVC
Формат/Информация : Advanced Video Codec
Профиль формата : High@L4.1
Параметр CABAC формата : Да
Параметр ReFrames формата : 9 кадров
Идентификатор кодека : V_MPEG4/ISO/AVC
Продолжительность : 1 ч. 40 м.
Битрейт : 4627 Кбит/сек
Ширина : 1280 пикселей
Высота : 534 пикселя
Соотношение сторон : 2,40:1
Режим частоты кадров : Постоянный
Частота кадров : 23,976 кадра/сек
Цветовое пространство : YUV
Субдискретизация насыщенности : 4:2:0
Битовая глубина : 8 бит
Тип развёртки : Прогрессивная
Бит/(Пиксели*Кадры) : 0.282
Размер потока : 3,16 Гбайт (72%)
Заголовок : potroks
Библиотека кодирования : x264 core 146 r2538 121396c
Настройки программы : cabac=1 / ref=9 / deblock=1:-3:-3 / analyse=0x3:0x113 / me=umh / subme=11 / psy=1 / psy_rd=0.96:0.00 / mixed_ref=1 / me_range=48 / chroma_me=1 / trellis=2 / 8x8dct=1 / cqm=0 / deadzone=21,11 / fast_pskip=0 / chroma_qp_offset=-2 / threads=9 / lookahead_threads=2 / sliced_threads=0 / nr=0 / decimate=0 / interlaced=0 / bluray_compat=0 / constrained_intra=0 / bframes=10 / b_pyramid=2 / b_adapt=2 / b_bias=0 / direct=3 / weightb=1 / open_gop=0 / weightp=2 / keyint=250 / keyint_min=23 / scenecut=40 / intra_refresh=0 / rc_lookahead=60 / rc=2pass / mbtree=0 / bitrate=4627 / ratetol=1.0 / qcomp=0.70 / qpmin=0 / qpmax=69 / qpstep=4 / cplxblur=20.0 / qblur=0.5 / vbv_maxrate=14000 / vbv_bufsize=14000 / nal_hrd=none / filler=0 / ip_ratio=1.35 / pb_ratio=1.25 / aq=1:0.80
Язык : English
Default : Да
Forced : Нет

Аудио #1
Идентификатор : 2
Формат : AC-3
Формат/Информация : Audio Coding 3
Расширение режима : CM (complete main)
Параметр Endianness формата : Big
Идентификатор кодека : A_AC3
Продолжительность : 1 ч. 40 м.
Вид битрейта : Постоянный
Битрейт : 640 Кбит/сек
Каналы : 6 каналов
Расположение каналов : Front: L C R, Side: L R, LFE
Частота : 48,0 КГц
Метод сжатия : С потерями
Размер потока : 461 Мбайт (10%)
Заголовок : Dub | DD 5.1 @ 640 kbps - Blu-Ray EUR
Язык : Russian
Default : Да
Forced : Нет

Аудио #2
Идентификатор : 3
Формат : AC-3
Формат/Информация : Audio Coding 3
Расширение режима : CM (complete main)
Параметр Endianness формата : Big
Идентификатор кодека : A_AC3
Продолжительность : 1 ч. 40 м.
Вид битрейта : Постоянный
Битрейт : 384 Кбит/сек
Каналы : 6 каналов
Расположение каналов : Front: L C R, Side: L R, LFE
Частота : 48,0 КГц
Метод сжатия : С потерями
Размер потока : 277 Мбайт (6%)
Заголовок : Dub | DD 5.1 @ 384 kbps - R5
Язык : Ukrainian
Default : Нет
Forced : Нет

Аудио #3
Идентификатор : 4
Формат : AC-3
Формат/Информация : Audio Coding 3
Расширение режима : CM (complete main)
Параметр Endianness формата : Big
Идентификатор кодека : A_AC3
Продолжительность : 1 ч. 40 м.
Вид битрейта : Постоянный
Битрейт : 640 Кбит/сек
Каналы : 6 каналов
Расположение каналов : Front: L C R, Side: L R, LFE
Частота : 48,0 КГц
Метод сжатия : С потерями
Размер потока : 461 Мбайт (10%)
Заголовок : Original | DD 5.1 @ 640 kbps
Язык : English
Default : Нет
Forced : Нет

Текст #1
Идентификатор : 5
Формат : UTF-8
Идентификатор кодека : S_TEXT/UTF8
Идентификатор кодека/Информация : UTF-8 Plain Text
Заголовок : Forced
Язык : Russian
Default : Да
Forced : Нет

Текст #2
Идентификатор : 6
Формат : UTF-8
Идентификатор кодека : S_TEXT/UTF8
Идентификатор кодека/Информация : UTF-8 Plain Text
Заголовок : v1
Язык : Russian
Default : Нет
Forced : Нет

Текст #3
Идентификатор : 7
Формат : UTF-8
Идентификатор кодека : S_TEXT/UTF8
Идентификатор кодека/Информация : UTF-8 Plain Text
Заголовок : v2
Язык : Russian
Default : Нет
Forced : Нет

Текст #4
Идентификатор : 8
Формат : UTF-8
Идентификатор кодека : S_TEXT/UTF8
Идентификатор кодека/Информация : UTF-8 Plain Text
Заголовок : Full
Язык : English
Default : Нет
Forced : Нет

Текст #5
Идентификатор : 9
Формат : UTF-8
Идентификатор кодека : S_TEXT/UTF8
Идентификатор кодека/Информация : UTF-8 Plain Text
Заголовок : SDH
Язык : English
Default : Нет
Forced : Нет

Меню
00:00:00.000 : en:(01)00:00:00:000
00:05:58.274 : en:(02)00:05:58:274
00:15:32.431 : en:(03)00:15:32:431
00:27:16.259 : en:(04)00:27:16:259
00:36:41.032 : en:(05)00:36:41:032
00:52:11.545 : en:(06)00:52:11:545
01:02:30.079 : en:(07)01:02:30:079
01:08:24.058 : en:(08)01:08:24:058
01:18:15.148 : en:(09)01:18:15:148
01:23:19.244 : en:(10)01:23:19:244
01:31:48.211 : en:(11)01:31:48:211
01:34:08.934 : en:(12)01:34:08:934
01:40:39.450 : en:(13)01:40:39:450

pb.wtf



Скачать Белая мгла через торрент http://i57.fastpic.ru/big/2015/0714/07/69cc45d6e01a44f868d3ac6212f35707.png Скачать фильм Белая мгла через торрент бесплантно в хорошем качестве Описание: У служительницы закона Кэрри есть всего три дня на то, чтобы с помощью пилота самолета поймать первого серийного убийцу в ... 9 10 10
Info! Золотая раздача, скачанное не засчитывается.
Торрент: Зарегистрирован [2015-07-14 19:39] · скачан: 128 раз
Статус: √ проверено
Размер: 4.42 GB
Как cкачать? Как скачать Белая мгла через торрент | qTorrent

28-11-2019 20:33  

Отключить всю рекламу на сайте

    Дорогой пользователь! Огромная просьба, поблагодарите релизера, оцените раздачу и оставьте свои комментарий, если Вы скачали Белая мгла через торрент бесплатно! Внесите свою лепту в развитие PiratBit!
    Комментировать посты могут только пользователи прошедшие не сложную регистрацию
    Показать сообщения:    

    Белая мгла через торрент
    Скачать бесплатно Белая мгла
    Белая мгла скачать торрент
    Белая мгла смотреть онлайн
    Cкачать фильм Белая мгла бесплатно
    Белая мгла скачать торрент в хорошем качестве
    Белая мгла смотреть онлайн бесплатно в хорошем качестве


    Вы не можете начинать темы
    Вы не можете отвечать на сообщения
    Вы не можете редактировать свои сообщения
    Вы не можете удалять свои сообщения
    Вы не можете голосовать в опросах
    Вы не можете прикреплять файлы к сообщениям
    Вы можете скачивать файлы