Ссылка на приватное зеркало всего за 1$. Внимание количество ограничено!!!

iTunes

iTunes

iTunes

1

iTunes

iTunes

iTunes

iTunes

iTunes

30
pack

$ от Little Big

ВАЖНО

!!Акция!!

Alien_RageХит недели

RePack

Resident Evil 21

ИГРА 18+

pack

RePack

jed

!!Акция!!

Alien_Rage

RePack

fifa19

RePack

Assassins Creed: Odyssey

RePack

NEED FOR SPEED™ PAYBACK

4 сезон

9 сезон

Бесстыжие 9 сезон

Все сериалы

все сериалы на PB.wtf

RePack

FAR CRY 5
  

Шесть раз / Shesh Peamim (Джонатан Гарфинкел) [2012, драма, WEB-DL 720p, Профессиональный (многоголосый) pb.wtf

Шесть раз через торрент pb.wtf

Размер: 2.44 GB | Добавлен: 4 года 11 мес. назад | Торрент скачан:100 раз
Скачать  

15-07-2015 10:16 Шесть раз Скачать торрент  


Шесть раз / Shesh Peamim
««Я знаю девушку, готовую переспать с каждым»»

ИНФОРМАЦИЯ:
Год выпуска:2012
Страна: Израиль
Жанр: драма
Продолжительность: 01:39:51
Перевод: Профессиональный (многоголосый)
Режиссер: Джонатан Гарфинкел

В Ролях:


Сиван Леви (Gili), Eviatar Mor (Omri), Рой Ник, Нив Зилберберг, Таль Грушка (Barel), Эран Иванир, Ронит Юдкевич, Мейрав Грубер (Gili's Mother), Asaf Hertz (Eyal), Nitzan Levratovsky (Orel), Дэниэл Китсис (Naama), Gita Amely (Noa)

Описание:
Гили переходит в новую школу. Она готова на многое, чтобы привлечь внимание к себе. В течение пары дней она знакомится с несколькими парнями. Их встречи приобретают все более сексуальный характер, каждый раз сдвигая границы дозволенного. Мальчики жаждут получить близость с Гили, а она в это время просто наслаждается вниманием к себе. Но в какой-то момент внутри девушки растет беспокойство: все происходит совсем не так, как она планировала.

  • Мировая премьера:24 сентября 2012

    ТЕХ.ДАННЫЕ:
    Качество: WEB-DL 720p
    Формат: MKV
    Видео кодек: AVC
    Аудио кодек: AC3
    Видео: AVC, 1280x714 (16:9), 3233 kbps, 24 fps, 0,074 bpp
    Аудио: AC3 / 2.0 / 48 kHz / 192 kbps / 16 bit


    Код:

    General
    Unique ID                                : 202462887600053798656902882349231969183 (0x9850EF0C92CB4AD99F46AB213FF1139F)
    Complete name                            : D:\Торенты\Shestj.raz.2012.P.WEBDL.720p.mkv
    Format                                   : Matroska
    Format version                           : Version 4 / Version 2
    File size                                : 2.44 GiB
    Duration                                 : 1h 39mn
    Overall bit rate                         : 3 495 Kbps
    Encoded date                             : UTC 2015-07-14 13:34:36
    Writing application                      : mkvmerge v6.8.0 ('Theme for Great Cities') 64bit built on Mar  2 2014 21:34:26
    Writing library                          : libebml v1.3.0 + libmatroska v1.4.1

    Video
    ID                                       : 1
    Format                                   : AVC
    Format/Info                              : Advanced Video Codec
    Format profile                           : High@L4.0
    Format settings, CABAC                   : Yes
    Format settings, ReFrames                : 8 frames
    Codec ID                                 : V_MPEG4/ISO/AVC
    Duration                                 : 1h 39mn
    Bit rate                                 : 3 233 Kbps
    Width                                    : 1 280 pixels
    Height                                   : 714 pixels
    Display aspect ratio                     : 16:9
    Original display aspect ratio            : 16:9
    Frame rate mode                          : Variable
    Frame rate                               : 48.000 fps
    Color space                              : YUV
    Chroma subsampling                       : 4:2:0
    Bit depth                                : 8 bits
    Scan type                                : Progressive
    Bits/(Pixel*Frame)                       : 0.074
    Stream size                              : 2.25 GiB (93%)
    Writing library                          : x264 core 142 r2455 021c0dc
    Encoding settings                        : cabac=1 / ref=8 / deblock=1:-1:-1 / analyse=0x3:0x133 / me=umh / subme=9 / psy=1 / psy_rd=1.00:0.15 / mixed_ref=1 / me_range=16 / chroma_me=1 / trellis=2 / 8x8dct=1 / cqm=0 / deadzone=21,11 / fast_pskip=1 / chroma_qp_offset=-3 / threads=18 / lookahead_threads=1 / sliced_threads=0 / nr=0 / decimate=1 / interlaced=0 / bluray_compat=0 / constrained_intra=0 / bframes=3 / b_pyramid=2 / b_adapt=2 / b_bias=0 / direct=3 / weightb=1 / open_gop=0 / weightp=2 / keyint=96 / keyint_min=9 / scenecut=40 / intra_refresh=0 / rc_lookahead=60 / rc=crf / mbtree=1 / crf=17.0 / qcomp=0.60 / qpmin=0 / qpmax=69 / qpstep=4 / vbv_maxrate=3600 / vbv_bufsize=3600 / crf_max=0.0 / nal_hrd=none / filler=0 / ip_ratio=1.40 / aq=1:1.00
    Default                                  : Yes
    Forced                                   : No

    Audio
    ID                                       : 2
    Format                                   : AC-3
    Format/Info                              : Audio Coding 3
    Mode extension                           : CM (complete main)
    Codec ID                                 : A_AC3
    Duration                                 : 1h 39mn
    Bit rate mode                            : Constant
    Bit rate                                 : 192 Kbps
    Channel(s)                               : 2 channels
    Channel positions                        : Front: L R
    Sampling rate                            : 48.0 KHz
    Bit depth                                : 16 bits
    Compression mode                         : Lossy
    Delay relative to video                  : -83ms
    Stream size                              : 137 MiB (5%)
    Default                                  : Yes
    Forced                                   : No

    Скриншоты:


    © Оформление by Ворон
    pb.wtf



  • Скачать Шесть раз через торрент http://pic.kartinco.top/images/6/ordi9.jpg Скачать фильм Шесть раз через торрент бесплантно в хорошем качестве Описание: Гили переходит в новую школу. Она готова на многое, чтобы привлечь внимание к себе. В течение пары дней она знакомится с ... 9 10 5
    Торрент: Зарегистрирован [2015-07-15 10:16] · скачан: 100 раз
    Статус: √ проверено
    Размер: 2.44 GB
    Как cкачать? Как скачать Шесть раз через торрент | qTorrent

    % Раздел Тема Автор DL S | L
    Фильмы 2012 [ 1.46 GB ] Шесть раз / Shesh Peamim [2012 WEB-DLRip Ворон Скачать
    1 | 0

    28-11-2019 20:33  

    Отключить всю рекламу на сайте

    15-07-2015 13:11 Шесть раз Скачать торрент  

    Фильм 6 раз скачан 8 раз pb.wtf



      Дорогой пользователь! Огромная просьба, поблагодарите релизера, оцените раздачу и оставьте свои комментарий, если Вы скачали Шесть раз через торрент бесплатно! Внесите свою лепту в развитие PiratBit!
      Комментировать посты могут только пользователи прошедшие не сложную регистрацию
      Показать сообщения:    

      Шесть раз через торрент
      Скачать бесплатно Шесть раз
      Шесть раз скачать торрент
      Шесть раз смотреть онлайн
      Cкачать фильм Шесть раз бесплатно
      Шесть раз скачать торрент в хорошем качестве
      Шесть раз смотреть онлайн бесплатно в хорошем качестве


      Вы не можете начинать темы
      Вы не можете отвечать на сообщения
      Вы не можете редактировать свои сообщения
      Вы не можете удалять свои сообщения
      Вы не можете голосовать в опросах
      Вы не можете прикреплять файлы к сообщениям
      Вы можете скачивать файлы