Ссылка на приватное зеркало нашего сайта всего за 1$. Внимание количество ограничено!!!

2 сезон

iTunes

1 сезон

1

2 сезон

2 сезон

iTunes

1 сезон

RePack

30

Ultimate

ВАЖНО

ИГРА 18+

pack

RePack

MK11
pack

Забери бонус

RePack

jed

!!Акция!!

Alien_Rage

RePack

fifa19

RePack

Assassins Creed: Odyssey

RePack

NEED FOR SPEED™ PAYBACK

4 сезон

9 сезон

Бесстыжие 9 сезон

Все сериалы

все сериалы на PB.wtf

RePack

FAR CRY 5
  

Бэтмен против Супермена: На заре справедливости / Batman v Superman: Dawn of Justice ( Зак Снайдер) [2016, Фантастика, фэнтези, боевик, приключения, WEBRip 1080p / Трейлер] Дублированный pb.wtf

Бэтмен против Супермена: На заре справедливости через торрент pb.wtf

Размер: 471 MB | Добавлен: 5 лет 4 мес. назад | Торрент скачан:84 раза
Скачать  

15-07-2015 10:21 Бэтмен против Супермена: На заре справедливости Скачать торрент  

Год выпуска: 2016

Производство: США / Warner Bros. Pictures, Dune Entertainment, Syncopy, DC Entertainment

Жанр: Фантастика, фэнтези, боевик, приключения

Перевод: Дублированный

Режиссер: Зак Снайдер
Продолжительность: 00:03:38
Продюсеры: Чарльз Ровен, Дебора Снайдер, Уэсли Коллер

Актеры: Генри Кавилл, Бен Аффлек, Галь Гадот, Джейсон Момоа, Эми Адамс, Джесси Айзенберг, Джена Мэлоун, Эзра Миллер, Дайан Лэйн, Джереми Айронс

Описание фильма:

Опасаясь, что действия богоподобного супергероя так и останутся бесконтрольными, грозный и могущественный страж Готэм Сити бросает вызов самому почитаемому в наши дни спасителю Метрополиса, в то время как весь остальной мир решает, какой герой ему по-настоящему нужен. И пока Бэтмен и Супермен пребывают в состоянии войны друг с другом, возникает новая угроза, которая ставит человечество под самую большую опасность, с которой оно когда-либо сталкивалось.
Дата мировой премьеры: 23 марта 2016

Дата российской премьеры: 24 марта 2016, «Каро-Премьер»






Качество видео: WEBRip1080p

Формат:MKV
Видео кодек: AVC
Аудио кодек: AC3
Видео: AVC, 1920x1080 (16:9), 23.976 fps, 18.0 Mbps (0.362 bit/pixel)
Аудио: AC-3, 48.0 KHz, 6 ch, 448 Kbps, CBR (Russian)
Общее

Уникальный идентификатор : 238250870614113310207907132120723758133 (0xB33D72D765C263878A604A6D7CB21C35)

Полное имя : G:ВидеоBatman v Superman. Dawn of Justice (2016) WEBRip [1080p] Трейлер.mkv

Формат : Matroska

Версия формата : Version 4 / Version 2

Размер файла : 471 Мбайт

Продолжительность : 3 м. 38 с.

Общий поток : 18,1 Мбит/сек

Дата кодирования : UTC 2015-07-15 09:38:23

Программа кодирования : mkvmerge v8.1.0 ('Psychedelic Postcard') 64bit

Библиотека кодирования : libebml v1.3.1 + libmatroska v1.4.2

Видео

Идентификатор : 1

Формат : AVC

Формат/Информация : Advanced Video Codec

Профиль формата : Baseline@L4.1

Параметр CABAC формата : Нет

Параметр ReFrames формата : 1 кадр

Идентификатор кодека : V_MPEG4/ISO/AVC

Продолжительность : 3 м. 38 с.

Битрейт : 18,0 Мбит/сек

Ширина : 1920 пикселей

Высота : 1080 пикселей

Соотношение сторон : 16:9

Режим частоты кадров : Постоянный

Частота кадров : 23,976 кадра/сек

Цветовое пространство : YUV

Субдискретизация насыщенности : 4:2:0

Битовая глубина : 8 бит

Тип развёртки : Прогрессивная

Бит/(Пиксели*Кадры) : 0.362

Размер потока : 450 Мбайт (96%)

Библиотека кодирования : x264 core 119

Настройки программы : cabac=0 / ref=1 / deblock=0:0:0 / analyse=0:0 / me=dia / subme=0 / psy=1 / psy_rd=1.00:0.00 / mixed_ref=0 / me_range=16 / chroma_me=1 / trellis=0 / 8x8dct=0 / cqm=0 / deadzone=21,11 / fast_pskip=1 / chroma_qp_offset=0 / threads=4 / sliced_threads=0 / nr=0 / decimate=1 / interlaced=0 / bluray_compat=0 / constrained_intra=0 / bframes=0 / weightp=0 / keyint=250 / keyint_min=23 / scenecut=0 / intra_refresh=0 / rc=abr / mbtree=0 / bitrate=18000 / ratetol=1.0 / qcomp=0.60 / qpmin=0 / qpmax=69 / qpstep=4 / ip_ratio=1.40 / aq=0

Default : Да

Forced : Нет

DURATION : 00:03:38.398000000

NUMBER_OF_FRAMES : 5235

NUMBER_OF_BYTES : 481194945

_STATISTICS_WRITING_APP : mkvmerge v8.1.0 ('Psychedelic Postcard') 64bit

_STATISTICS_WRITING_DATE_UTC : 2015-07-15 09:38:23

_STATISTICS_TAGS : BPS DURATION NUMBER_OF_FRAMES NUMBER_OF_BYTES

Аудио

Идентификатор : 2

Формат : AC-3

Формат/Информация : Audio Coding 3

Расширение режима : CM (complete main)

Параметр Endianness формата : Big

Идентификатор кодека : A_AC3

Продолжительность : 3 м. 38 с.

Вид битрейта : Постоянный

Битрейт : 448 Кбит/сек

Каналы : 6 каналов

Расположение каналов : Front: L C R, Side: L R, LFE

Частота : 48,0 КГц

Битовая глубина : 16 бит

Метод сжатия : С потерями

Задержка видео : 18 мс.

Размер потока : 11,7 Мбайт (2%)

Заголовок : Дублированный

Язык : Russian

Default : Да

Forced : Нет

DURATION : 00:03:38.144000000

NUMBER_OF_FRAMES : 6817

NUMBER_OF_BYTES : 12216064

_STATISTICS_WRITING_APP : mkvmerge v8.1.0 ('Psychedelic Postcard') 64bit

_STATISTICS_WRITING_DATE_UTC : 2015-07-15 09:38:23

_STATISTICS_TAGS : BPS DURATION NUMBER_OF_FRAMES NUMBER_OF_BYTES
Скриншоты: pb.wtf



Скачать Бэтмен против Супермена: На заре справедливости через торрент http://i72.fastpic.ru/big/2015/0715/bb/2f42311a3c9214f57a4ac2c9dd112cbb.jpg Скачать фильм Бэтмен против Супермена: На заре справедливости через торрент бесплантно в хорошем качестве Описание фильма:Опасаясь, что действия богоподобного супергероя так и останутся бесконтрольными, грозный и могущественный страж Готэм Сити ... 10 10 4
Торрент: Зарегистрирован [2015-07-15 10:21] · скачан: 84 раз
Статус: √ проверено
Размер: 471 MB
Как cкачать? Как скачать Бэтмен против Супермена: На заре справедливости через торрент | qTorrent

28-11-2019 20:33  

Отключить всю рекламу на сайте

15-07-2015 10:31 Бэтмен против Супермена: На заре справедливости Скачать торрент  

я вот не понимаю,зачем выкладывать сюда трейлеры,когда на ютубе их обновляют чуть ли не каждую минуту. дебилизм какой то!pb.wtf



15-07-2015 10:44 Бэтмен против Супермена: На заре справедливости Скачать торрент  

ar4i99, sarcastic узко мыслишь уважаемый. Еще можно скопировать себе на любое устройство и посмотреть где угодно, да и не у всех инет хороший чтоб нормально смотреть на телефоне, планшете и т.д. Если тебе не надо то пройди мимо или обязательно надо насрать в теме)=pb.wtf



    Дорогой пользователь! Огромная просьба, поблагодарите релизера, оцените раздачу и оставьте свои комментарий, если Вы скачали Бэтмен против Супермена: На заре справедливости через торрент бесплатно! Внесите свою лепту в развитие PiratBit!
    Комментировать посты могут только пользователи прошедшие не сложную регистрацию
    Показать сообщения:    

    Бэтмен против Супермена: На заре справедливости через торрент
    Скачать бесплатно Бэтмен против Супермена: На заре справедливости
    Бэтмен против Супермена: На заре справедливости скачать торрент
    Бэтмен против Супермена: На заре справедливости смотреть онлайн
    Cкачать фильм Бэтмен против Супермена: На заре справедливости бесплатно
    Бэтмен против Супермена: На заре справедливости скачать торрент в хорошем качестве
    Бэтмен против Супермена: На заре справедливости смотреть онлайн бесплатно в хорошем качестве


    Вы не можете начинать темы
    Вы не можете отвечать на сообщения
    Вы не можете редактировать свои сообщения
    Вы не можете удалять свои сообщения
    Вы не можете голосовать в опросах
    Вы не можете прикреплять файлы к сообщениям
    Вы можете скачивать файлы