Мега распродажа FORZA HORIZON 4 ULTIMATE+ВСЕ DLC+ОНЛАЙН всего за 499р. 349 руб. (супер цена). Внимание количество ограничено!!!

iTunes

1+1

iTunes

мы

iTunes

1

1 сезон

Чернобыль

1 сезон

Ральф против интернета

Лицензия

ПШазам

8 сезон

Игра престолов

Лицензия

30
pack

ВАЖНО

!!Акция!!

Alien_RageХит недели

RePack

Resident Evil 21

ИГРА 18+

pack

RePack

Metro:Exodus

!!Акция!!

Alien_Rage

RePack

fifa19

RePack

Assassins Creed: Odyssey

RePack

NEED FOR SPEED™ PAYBACK

3 сезон

9 сезон

Бесстыжие 9 сезон

Все сериалы

все сериалы на PB.wtf

RePack

FAR CRY 5
Ребята, катастрофически не хватает 2730р. для оплаты серверов за ИЮНЬ (всвязи с блокировками трафик упал в 3 раза), 1-2р., выручайте.
  

Сирена «Миссисипи» / La sirène du Mississipi (Франсуа Трюффо) [1969, драма, мелодрама, криминал, BDRip AVC by msltel] MVO pb.wtf

Сирена «Миссисипи» через торрент pb.wtf

Размер: 2.38 GB | Добавлен: 4 года назад | Торрент скачан:25 раз
Скачать  

15-07-2015 10:45 Сирена «Миссисипи» Скачать торрент  

Название: Сирена «Миссисипи»
Оригинальное название: La sirène du Mississipi
Год выпуска: 1969
Страна: Франция, Италия
Жанр: драма, мелодрама, криминал
Продолжительность: 02:03:19
Перевод: профессиональный многоголосый

Режиссёр: Франсуа Трюффо

В ролях: Жан-Поль Бельмондо, Катрин Денёв, Нелли Боржо, Мартина Феррьер, Марсель Бербер, Ив Друэ, Мишель Буке, Ролан Тено

Описание: На далёкую колонию Франции у берегов Африки богатый плантатор Луи Макс приглашает невесту, найденную по переписке, чтобы создать семью. Вскоре после заключения брака Жюли исчезает с большей частью состояния Луи. Становится очевидно, что красавица оказалась самозванкой. По случайности, обманутому мужу удается отыскать во Франции жену. Луи все ещё любит Мерион и прощает ей всё. Но испытывает ли Мерион такие же глубокие чувства? Или она все ещё интересуется исключительно его деньгами?... Фильм снят по мотивам романа Корнелла Вулрича «Соблазн» (Waltz Into Darkness, 1947).



Качество: BDRip AVC Сравнение с исходником
Формат: MKV
Видео кодек: H.264
Аудио кодек: AC3
Видео: MPEG-4 AVC, 2321 Кбит/с, 1024x436, 23,976 кадра/с
Аудио 1: русский, AC3, 192 kbps, 2 ch, 48 kHz [профессиональный многоголосый]
Аудио 2: французский, AC3, 192 kbps, 1 ch, 48 kHz [оригинал]
Субтитры: английские (хардсабы)
Общее
Уникальный идентификатор : 223329083163184673930914663087914231475 (0xA8039DEB4CF5287593E6BA60083226B3)
Полное имя : D:\Video\Сирена Миссисипи.1969.BDRip.AVC.mkv
Формат : Matroska
Версия формата : Version 4 / Version 2
Размер файла : 2,38 Гбайт
Продолжительность : 2 ч. 3 м.
Общий поток : 2760 Кбит/сек
Название фильма : BDRip -- STaranko
Дата кодирования : UTC 2015-07-15 08:20:30
Программа кодирования : mkvmerge v7.9.0 ('Birds') 64bit
Библиотека кодирования : libebml v1.3.1 + libmatroska v1.4.2
DURATION : 02:03:19.264000000
NUMBER_OF_FRAMES : 231227
NUMBER_OF_BYTES : 177582336
_STATISTICS_WRITING_APP : mkvmerge v7.9.0 ('Birds') 64bit
_STATISTICS_WRITING_DATE_UTC : 2015-07-15 08:20:30
_STATISTICS_TAGS : BPS DURATION NUMBER_OF_FRAMES NUMBER_OF_BYTES

Видео
Идентификатор : 1
Формат : AVC
Формат/Информация : Advanced Video Codec
Профиль формата : High@L4.1
Параметр CABAC формата : Да
Параметр ReFrames формата : 9 кадров
Идентификатор кодека : V_MPEG4/ISO/AVC
Продолжительность : 2 ч. 3 м.
Битрейт : 2321 Кбит/сек
Ширина : 1024 пикселя
Высота : 436 пикселей
Соотношение сторон : 2,35:1
Режим частоты кадров : Постоянный
Частота кадров : 23,976 кадра/сек
Цветовое пространство : YUV
Субдискретизация насыщенности : 4:2:0
Битовая глубина : 8 бит
Тип развёртки : Прогрессивная
Бит/(Пиксели*Кадры) : 0.217
Размер потока : 2,00 Гбайт (84%)
Библиотека кодирования : x264 core 146 r2538 121396c
Настройки программы : cabac=1 / ref=9 / deblock=1:-2:-2 / analyse=0x3:0x113 / me=umh / subme=10 / psy=1 / psy_rd=1.00:0.15 / mixed_ref=1 / me_range=32 / chroma_me=1 / trellis=2 / 8x8dct=1 / cqm=0 / deadzone=21,11 / fast_pskip=1 / chroma_qp_offset=-3 / threads=6 / lookahead_threads=1 / sliced_threads=0 / nr=0 / decimate=1 / interlaced=0 / bluray_compat=0 / constrained_intra=0 / bframes=11 / b_pyramid=2 / b_adapt=2 / b_bias=0 / direct=1 / weightb=1 / open_gop=0 / weightp=2 / keyint=230 / keyint_min=23 / scenecut=40 / intra_refresh=0 / rc_lookahead=40 / rc=crf / mbtree=0 / crf=20.0 / qcomp=0.60 / qpmin=0 / qpmax=69 / qpstep=4 / vbv_maxrate=40000 / vbv_bufsize=50000 / crf_max=0.0 / nal_hrd=none / filler=0 / ip_ratio=1.40 / pb_ratio=1.30 / aq=1:1.00
Язык : French
Default : Да
Forced : Нет
DURATION : 02:03:19.225000000
NUMBER_OF_FRAMES : 177404
NUMBER_OF_BYTES : 2195453146
_STATISTICS_WRITING_APP : mkvmerge v7.9.0 ('Birds') 64bit
_STATISTICS_WRITING_DATE_UTC : 2015-07-15 08:20:30
_STATISTICS_TAGS : BPS DURATION NUMBER_OF_FRAMES NUMBER_OF_BYTES

Аудио #1
Идентификатор : 2
Формат : AC-3
Формат/Информация : Audio Coding 3
Расширение режима : CM (complete main)
Параметр Endianness формата : Big
Идентификатор кодека : A_AC3
Продолжительность : 2 ч. 3 м.
Вид битрейта : Постоянный
Битрейт : 192 Кбит/сек
Каналы : 2 канала
Расположение каналов : Front: L R
Частота : 48,0 КГц
Битовая глубина : 16 бит
Метод сжатия : С потерями
Размер потока : 169 Мбайт (7%)
Заголовок : MVO (DVD Магия)
Язык : Russian
Default : Да
Forced : Нет

Аудио #2
Идентификатор : 3
Формат : AC-3
Формат/Информация : Audio Coding 3
Расширение режима : CM (complete main)
Параметр Endianness формата : Big
Идентификатор кодека : A_AC3
Продолжительность : 2 ч. 3 м.
Вид битрейта : Постоянный
Битрейт : 192 Кбит/сек
Каналы : 1 канал
Расположение каналов : Front: C
Частота : 48,0 КГц
Битовая глубина : 16 бит
Метод сжатия : С потерями
Размер потока : 169 Мбайт (7%)
Заголовок : Original
Язык : French
Default : Нет
Forced : Нет
pb.wtf



Скачать Сирена «Миссисипи» через торрент http://i69.fastpic.ru/big/2015/0715/0f/e04ffe9e80b2d78ad7dcfcc694062e0f.jpg Скачать фильм Сирена «Миссисипи» через торрент бесплантно в хорошем качестве Описание: На далёкую колонию Франции у берегов Африки богатый плантатор Луи Макс приглашает невесту, найденную по переписке, чтобы создать ... 10 10 3
Торрент: Зарегистрирован [2015-07-15 10:45] · скачан: 25 раз
Статус: √ проверено
Размер: 2.38 GB
Как cкачать? Как скачать Сирена «Миссисипи» через торрент | qTorrent

% Раздел Тема Автор DL S | L
Фильмы [HD 720p, 1080p] (Хороший звук DUB, MVO) [ 10.58 GB ] Сирена «Миссисипи» / La sirène du Mississipi [1969 BDRip 1080p by msltel] MVO msltel Скачать
1 | 0
Фильмы [HD 720p, 1080p] (Хороший звук DUB, MVO) [ 4.01 GB ] Сирена «Миссисипи» / La sirène du Mississipi [1969 BDRip 720p by msltel] MVO msltel Скачать
1 | 0


>> Регистрируемся здесь <<






Отзывы и комментарии о схеме читаем и пишем здесь: ---> Отзывы и комментарии о схеме

Новые благодарочки в телеграм довольных пользователей:
скриншот   скриншот   скриншот   скриншот   скриншот
    Дорогой пользователь! Огромная просьба, поблагодарите релизера, оцените раздачу и оставьте свои комментарий, если Вы скачали Сирена «Миссисипи» через торрент бесплатно! Внесите свою лепту в развитие PiratBit!
    Комментировать посты могут только пользователи прошедшие не сложную регистрацию
    Показать сообщения:    

    Сирена «Миссисипи» через торрент
    Скачать бесплатно Сирена «Миссисипи»
    Сирена «Миссисипи» скачать торрент
    Сирена «Миссисипи» смотреть онлайн
    Cкачать фильм Сирена «Миссисипи» бесплатно
    Сирена «Миссисипи» скачать торрент в хорошем качестве
    Сирена «Миссисипи» смотреть онлайн бесплатно в хорошем качестве


    Вы не можете начинать темы
    Вы не можете отвечать на сообщения
    Вы не можете редактировать свои сообщения
    Вы не можете удалять свои сообщения
    Вы не можете голосовать в опросах
    Вы не можете прикреплять файлы к сообщениям
    Вы можете скачивать файлы