Лицензия

MVO

1

1 сезон

Лицензия

Лицензия

13

MVO

1 сезон

Deluxe Edition

pack

Рекомендуем

30

Repack

ВАЖНО

ВАЖНО

Ghostwire

RePack

jed

RePack

fifa19

RePack

RDR2

RePack

NEED FOR SPEED™ PAYBACK

RePack

Кинопоиск HD

 Острые козырьки 6 сезон

6 сезон

FAR CRY 6

RePack

Лицензия

MVO

1

1 сезон

1 сезон

Лицензия

  

Грязные прелести / Dirty Pretty Things (Стивен Фрирз / Stephen Frears) [2002, триллер, драма, криминал, BDRip 720p] DUB, MVO, DVO, AVO

Грязные прелести через торрент pb.wtf

Размер: 6.51 GB | Добавлен: 7 лет 2 мес. назад | Торрент скачан:168 раз
Смотреть онлайн Грязные прелести | Скачать   

16-07-2015 14:08 Грязные прелести Скачать торрент  

Грязные прелести / Dirty Pretty Things
«Некоторые тайны слишком опасно хранить в секрете»


Год выпуска: 2002
Страна: Великобритания
Жанр: триллер, драма, криминал
Продолжительность: 01:36:55
Перевод: Дублированный, Профессиональный многоголосый, Профессиональный (двухголосый), Авторский (одноголосый)
Субтитры: русские (v1), русские (v2), английские
Режиссер: Стивен Фрирз
В ролях: Чиветель Эджиофор , Одри Тоту , Серхи Лопес , Софи Оконедо , Бенедикт Вонг , Златко Бурич , Крисс Досанж , Исраель Адурамо , Йеми Аджибаде , Низвар Каранж , Доби Опарей , Джеффри Киссун
Описание:
Подпольный мир Лондона. Здесь все продается и покупается. Молодой человек и девушка работают в одном отеле, очаге преступной деятельности.
Они практически незнакомы до того момента, пока один из них не делает леденящее душу открытие. Герои не могут сообщить об этом ни коррумпированному боссу, ни полиции. Они будут счастливы, если им удастся остаться в живых.

R - Лицам до 17 лет обязательно присутствие взрослого
Качество: BDRip 720p
Контейнер (Расширение): MKV
Видео кодек: AVC
Аудио кодек: AC3
Видео: 1280x694, 6934 Кбит/сек, 23,976 кадр/сек, 0,326 Бит/[Пиксели*Кадры]
Аудио №1: русский / AC3 / 5.1 / 48 kHz / 384 kbps / 16 bit |Дублированный|
Аудио №2: русский / AC3 / 5.1 / 48 kHz / 448 kbps / 16 bit |Профессиональный (многоголосый, закадровый)|
Аудио №3: русский / AC3 / 5.1 / 48 kHz / 384 kbps / 16 bit |Профессиональный (двухголосый, закадровый) DDV|
Аудио №4: русский / AC3 / 5.1 / 48 kHz / 640 kbps / 16 bit |Авторский (одноголосый, закадровый) Евгений Рудой|
Аудио №5: английский / AC3 / 5.1 / 48 kHz / 640 kbps / 16 bit
Навигация по главам(Чаптеры): есть
Видеоряд EbP
Синхронизация звука и субтитров by _denis_100Релиз от: Сообщество:

Код:

Format                                   : Matroska
Format version                           : Version 2
File size                                : 6.51 GiB
Duration                                 : 1h 36mn
Overall bit rate                         : 9 622 Kbps
Movie name                               : Grjaznye prelesti.(2002).BDRip.720p.[denis100]
Encoded date                             : UTC 2015-07-15 21:45:39
Writing application                      : mkvmerge v5.8.0 ('No Sleep / Pillow') built on Sep  2 2012 15:37:04
Writing library                          : libebml v1.2.3 + libmatroska v1.3.0

Video
ID                                       : 1
Format                                   : AVC
Format/Info                              : Advanced Video Codec
Format profile                           : [email protected]
Format settings, CABAC                   : Yes
Format settings, ReFrames                : 9 frames
Codec ID                                 : V_MPEG4/ISO/AVC
Duration                                 : 1h 36mn
Bit rate                                 : 6 934 Kbps
Width                                    : 1 280 pixels
Height                                   : 694 pixels
Display aspect ratio                     : 16:9
Frame rate                               : 23.976 fps
Color space                              : YUV
Chroma subsampling                       : 4:2:0
Bit depth                                : 8 bits
Scan type                                : Progressive
Bits/(Pixel*Frame)                       : 0.326
Stream size                              : 4.69 GiB (72%)
Title                                    : Grjaznye prelesti.(2002).BDRip.720p.[denis100]
Writing library                          : x264 core 125 r2200 999b753
Encoding settings                        : cabac=1 / ref=9 / deblock=1:-3:-3 / analyse=0x3:0x113 / me=umh / subme=11 / psy=1 / psy_rd=1.05:0.00 / mixed_ref=1 / me_range=32 / chroma_me=1 / trellis=2 / 8x8dct=1 / cqm=0 / deadzone=21,11 / fast_pskip=0 / chroma_qp_offset=-2 / threads=12 / lookahead_threads=2 / sliced_threads=0 / nr=0 / decimate=0 / interlaced=0 / bluray_compat=0 / constrained_intra=0 / bframes=8 / b_pyramid=2 / b_adapt=2 / b_bias=0 / direct=3 / weightb=1 / open_gop=0 / weightp=2 / keyint=250 / keyint_min=23 / scenecut=40 / intra_refresh=0 / rc=crf / mbtree=0 / crf=17.6 / qcomp=0.60 / qpmin=0 / qpmax=69 / qpstep=4 / ip_ratio=1.40 / pb_ratio=1.30 / aq=1:0.85
Language                                 : English
Default                                  : Yes
Forced                                   : No

Audio #1
ID                                       : 2
Format                                   : AC-3
Format/Info                              : Audio Coding 3
Mode extension                           : CM (complete main)
Codec ID                                 : A_AC3
Duration                                 : 1h 36mn
Bit rate mode                            : Constant
Bit rate                                 : 384 Kbps
Channel(s)                               : 6 channels
Channel positions                        : Front: L C R, Side: L R, LFE
Sampling rate                            : 48.0 KHz
Bit depth                                : 16 bits
Compression mode                         : Lossy
Stream size                              : 266 MiB (4%)
Title                                    : DUB R5
Language                                 : Russian
Default                                  : Yes
Forced                                   : No

Audio #2
ID                                       : 3
Format                                   : AC-3
Format/Info                              : Audio Coding 3
Mode extension                           : CM (complete main)
Codec ID                                 : A_AC3
Duration                                 : 1h 36mn
Bit rate mode                            : Constant
Bit rate                                 : 448 Kbps
Channel(s)                               : 6 channels
Channel positions                        : Front: L C R, Side: L R, LFE
Sampling rate                            : 48.0 KHz
Bit depth                                : 16 bits
Compression mode                         : Lossy
Stream size                              : 311 MiB (5%)
Title                                    : MVO
Language                                 : Russian
Default                                  : No
Forced                                   : No

Audio #3
ID                                       : 4
Format                                   : AC-3
Format/Info                              : Audio Coding 3
Mode extension                           : CM (complete main)
Codec ID                                 : A_AC3
Duration                                 : 1h 36mn
Bit rate mode                            : Constant
Bit rate                                 : 384 Kbps
Channel(s)                               : 6 channels
Channel positions                        : Front: L C R, Side: L R, LFE
Sampling rate                            : 48.0 KHz
Bit depth                                : 16 bits
Compression mode                         : Lossy
Stream size                              : 266 MiB (4%)
Title                                    : DVO
Language                                 : Russian
Default                                  : No
Forced                                   : No

Audio #4
ID                                       : 5
Format                                   : AC-3
Format/Info                              : Audio Coding 3
Mode extension                           : CM (complete main)
Codec ID                                 : A_AC3
Duration                                 : 1h 36mn
Bit rate mode                            : Constant
Bit rate                                 : 640 Kbps
Channel(s)                               : 6 channels
Channel positions                        : Front: L C R, Side: L R, LFE
Sampling rate                            : 48.0 KHz
Bit depth                                : 16 bits
Compression mode                         : Lossy
Stream size                              : 444 MiB (7%)
Title                                    : AVO Rudoy
Language                                 : Russian
Default                                  : No
Forced                                   : No

Audio #5
ID                                       : 6
Format                                   : AC-3
Format/Info                              : Audio Coding 3
Mode extension                           : CM (complete main)
Codec ID                                 : A_AC3
Duration                                 : 1h 36mn
Bit rate mode                            : Constant
Bit rate                                 : 640 Kbps
Channel(s)                               : 6 channels
Channel positions                        : Front: L C R, Side: L R, LFE
Sampling rate                            : 48.0 KHz
Bit depth                                : 16 bits
Compression mode                         : Lossy
Stream size                              : 444 MiB (7%)
Language                                 : English
Default                                  : No
Forced                                   : No

Text #1
ID                                       : 7
Format                                   : UTF-8
Codec ID                                 : S_TEXT/UTF8
Codec ID/Info                            : UTF-8 Plain Text
Title                                    : v1
Language                                 : Russian
Default                                  : No
Forced                                   : No

Text #2
ID                                       : 8
Format                                   : UTF-8
Codec ID                                 : S_TEXT/UTF8
Codec ID/Info                            : UTF-8 Plain Text
Title                                    : v2
Language                                 : Russian
Default                                  : No
Forced                                   : No

Text #3
ID                                       : 9
Format                                   : UTF-8
Codec ID                                 : S_TEXT/UTF8
Codec ID/Info                            : UTF-8 Plain Text
Language                                 : English
Default                                  : No
Forced                                   : No

Menu
00:00:00.000                             : en:00:00:00.000
00:06:58.418                             : en:00:06:58.418
00:13:06.786                             : en:00:13:06.786
00:21:27.119                             : en:00:21:27.119
00:26:28.587                             : en:00:26:28.587
00:32:21.940                             : en:00:32:21.940
00:39:28.366                             : en:00:39:28.366
00:44:40.678                             : en:00:44:40.678
00:51:05.479                             : en:00:51:05.479
00:57:45.462                             : en:00:57:45.462
01:02:24.032                             : en:01:02:24.032
01:07:37.679                             : en:01:07:37.679
01:14:40.434                             : en:01:14:40.434
01:21:32.763                             : en:01:21:32.763
01:27:50.348                             : en:01:27:50.348




Скачать Грязные прелести через торрент http://i71.fastpic.ru/big/2015/0716/e1/b74dcf624e12b99c5b4cf7e312181ae1.png Скачать, смотреть онлайн Грязные прелести бесплантно в хорошем качестве Описание:Подпольный мир Лондона. Здесь все продается и покупается. Молодой человек и девушка работают в одном отеле, очаге преступной ... 9.4 10 8
Info! Золотая раздача, скачанное не засчитывается.
Торрент: Зарегистрирован [2015-07-16 14:08] · скачан: 168 раз
Статус: √ проверено
Размер: 6.51 GB
Как cкачать? Как скачать Грязные прелести через торрент | UTorrent

28-11-2019 20:33  

Отключить вcю реклaмy на сайте

    Дорогой пользователь! Огромная просьба, поблагодарите релизера, оцените раздачу и оставьте свои комментарий, если Вы скачали Грязные прелести через торрент бесплатно!!
    Комментировать посты могут только пользователи прошедшие не сложную регистрацию
    Показать сообщения:    


    Грязные прелести через торрент
    Скачать бесплатно Грязные прелести
    Грязные прелести скачать торрент
    Грязные прелести смотреть онлайн
    Cкачать фильм Грязные прелести бесплатно
    Грязные прелести скачать торрент в хорошем качестве
    Грязные прелести смотреть онлайн бесплатно в хорошем качестве
    Вы не можете начинать темы
    Вы не можете отвечать на сообщения
    Вы не можете редактировать свои сообщения
    Вы не можете удалять свои сообщения
    Вы не можете голосовать в опросах
    Вы не можете прикреплять файлы к сообщениям
    Вы можете скачивать файлы