Ссылка на приватное зеркало нашего сайта всего за 1$. Внимание количество ограничено!!!

2 сезон

iTunes

1 сезон

1

2 сезон

2 сезон

iTunes

1 сезон

RePack

30

Новинка

ВАЖНО

ИГРА 18+

pack

RePack

MK11
pack

Забери бонус

RePack

jed

!!Акция!!

Alien_Rage

RePack

fifa19

RePack

Assassins Creed: Odyssey

RePack

NEED FOR SPEED™ PAYBACK

4 сезон

9 сезон

Бесстыжие 9 сезон

Все сериалы

все сериалы на PB.wtf

RePack

FAR CRY 5
  

Солёное поле боя / Salting the Battlefield (Дэвид Хэа) [2014, боевик, драма, криминал, BDRip 720p, Любительский (одноголосый) pb.wtf

Солёное поле боя через торрент pb.wtf

Размер: 4.32 GB | Добавлен: 5 лет 4 мес. назад | Торрент скачан:32 раза
Скачать  

16-07-2015 17:24 Солёное поле боя Скачать торрент  


Солёное поле боя / Salting the Battlefield


ИНФОРМАЦИЯ:
Год выпуска:2014
Страна: Великобритания
Жанр: боевик, драма, криминал, детектив
Продолжительность: 01:36:44
Перевод: Любительский (одноголосый)(Levelin)
Режиссер: Дэвид Хэа

В Ролях:


Рэйф Файнс (Alec Beasley), Анна Бёгер (Europcar Assistant), Шазад Латиф (Jez Nichols), Фелисити Джонс (Julianne Worricker), Джеймс МакАрдл (Ted Finch), Билл Найи (Johnny Worricker), Саския Ривз (Anthea Catcheside), Дэниэл Райан (Bill Catcheside), Лиэнн Бест (Amber Page), Джуди Дэвис (Jill Tankard), Хелена Бонем Картер (Margot Tyrrell), Юэн Бремнер (Rollo Maverley)

Описание:
В центре сюжета детективной драмы два спецагента - Джонни Уоррикер и Марго Тирел, которые находятся в Европе в бегах. По их следу идет МИ-6. Они понимают, что так не может продолжаться всю жизнь и осознают, что их вот-вот могут обнаружить. Единственный способ разрешить эту дилемму - это вернуться в Великобританию и встретиться с премьер-министром.

  • Мировая премьера:27 марта 2014

    ТЕХ.ДАННЫЕ:
    Качество: BDRip 720p
    Формат: MKV
    Видео кодек: AVC
    Аудио кодек: AC3, DTS
    Видео: AVC, 1280x536 (2.40:1), 4697 kbps, 23,976 fps, 0,286 bpp
    Аудио №1: русский / AC3 / 2.0 / 48 kHz / 192 kbps / 16 bit ||
    Аудио №2: английский / DTS / 5.1 / 48 kHz / 1510 kbps / 24 bit


    Код:

    General
    Unique ID                                : 203061988984663377966802376805226585606 (0x98C45107248A02DF8B669C6B37831E06)
    Complete name                            : D:\Торенты\S0len0e.p0l3.b01a.2014.L1.BDRip.720p.mkv
    Format                                   : Matroska
    Format version                           : Version 4 / Version 2
    File size                                : 4.32 GiB
    Duration                                 : 1h 36mn
    Overall bit rate mode                    : Variable
    Overall bit rate                         : 6 400 Kbps
    Encoded date                             : UTC 2015-07-16 15:39:27
    Writing application                      : mkvmerge v6.5.0 ('Isn't she lovely') built on Oct 20 2013 12:50:05
    Writing library                          : libebml v1.3.0 + libmatroska v1.4.1

    Video
    ID                                       : 1
    Format                                   : AVC
    Format/Info                              : Advanced Video Codec
    Format profile                           : High@L4.1
    Format settings, CABAC                   : Yes
    Format settings, ReFrames                : 5 frames
    Codec ID                                 : V_MPEG4/ISO/AVC
    Duration                                 : 1h 36mn
    Bit rate mode                            : Variable
    Bit rate                                 : 4 697 Kbps
    Maximum bit rate                         : 15.0 Mbps
    Width                                    : 1 280 pixels
    Height                                   : 536 pixels
    Display aspect ratio                     : 2.40:1
    Frame rate                               : 23.976 fps
    Color space                              : YUV
    Chroma subsampling                       : 4:2:0
    Bit depth                                : 8 bits
    Scan type                                : Progressive
    Bits/(Pixel*Frame)                       : 0.286
    Stream size                              : 3.09 GiB (71%)
    Writing library                          : x264 core 146 r2538 121396c
    Encoding settings                        : cabac=1 / ref=6 / deblock=1:0:0 / analyse=0x3:0x133 / me=umh / subme=9 / psy=1 / psy_rd=1.00:0.00 / mixed_ref=1 / me_range=24 / chroma_me=1 / trellis=2 / 8x8dct=1 / cqm=0 / deadzone=21,11 / fast_pskip=1 / chroma_qp_offset=-2 / threads=12 / lookahead_threads=1 / sliced_threads=0 / slices=4 / nr=0 / decimate=1 / interlaced=0 / bluray_compat=1 / constrained_intra=0 / bframes=3 / b_pyramid=1 / b_adapt=2 / b_bias=0 / direct=3 / weightb=1 / open_gop=1 / weightp=1 / keyint=23 / keyint_min=1 / scenecut=40 / intra_refresh=0 / rc_lookahead=23 / rc=2pass / mbtree=0 / bitrate=4697 / ratetol=1.0 / qcomp=0.60 / qpmin=0 / qpmax=51 / qpstep=4 / cplxblur=20.0 / qblur=0.5 / vbv_maxrate=15000 / vbv_bufsize=15000 / nal_hrd=vbr / filler=0 / ip_ratio=1.40 / pb_ratio=1.30 / aq=0
    Default                                  : Yes
    Forced                                   : No
    Color primaries                          : BT.709-5, BT.1361, IEC 61966-2-4, SMPTE RP177
    Transfer characteristics                 : BT.709-5, BT.1361
    Matrix coefficients                      : BT.709-5, BT.1361, IEC 61966-2-4 709, SMPTE RP177

    Audio #1
    ID                                       : 2
    Format                                   : AC-3
    Format/Info                              : Audio Coding 3
    Mode extension                           : CM (complete main)
    Codec ID                                 : A_AC3
    Duration                                 : 1h 36mn
    Bit rate mode                            : Constant
    Bit rate                                 : 192 Kbps
    Channel(s)                               : 2 channels
    Channel positions                        : Front: L R
    Sampling rate                            : 48.0 KHz
    Bit depth                                : 16 bits
    Compression mode                         : Lossy
    Stream size                              : 133 MiB (3%)
    Language                                 : Russian
    Default                                  : Yes
    Forced                                   : No

    Audio #2
    ID                                       : 3
    Format                                   : DTS
    Format/Info                              : Digital Theater Systems
    Codec ID                                 : A_DTS
    Duration                                 : 1h 36mn
    Bit rate mode                            : Constant
    Bit rate                                 : 1 510 Kbps
    Channel(s)                               : 6 channels
    Channel positions                        : Front: L C R, Side: L R, LFE
    Sampling rate                            : 48.0 KHz
    Bit depth                                : 24 bits
    Compression mode                         : Lossy
    Stream size                              : 1.02 GiB (24%)
    Language                                 : English
    Default                                  : No
    Forced                                   : No

    Скриншоты:


    © Оформление by Ворон
    pb.wtf



  • Скачать Солёное поле боя через торрент http://pic.kartinco.top/images/6/ordi9.jpg Скачать фильм Солёное поле боя через торрент бесплантно в хорошем качестве Описание: В центре сюжета детективной драмы два спецагента - Джонни Уоррикер и Марго Тирел, которые находятся в Европе в бегах. По их следу ... 10 10 3
    Торрент: Зарегистрирован [2015-07-16 17:24] · скачан: 32 раз
    Статус: √ проверено
    Размер: 4.32 GB
    Как cкачать? Как скачать Солёное поле боя через торрент | qTorrent

    % Раздел Тема Автор DL S | L
    Фильмы [HD 720p, 1080p] (Звук Cam, VO, DVO) [ 9.47 GB ] Солёное поле боя / Salting the Battlefield [2014 BDRip 1080p by msltel] VO msltel Скачать
    1 | 0
    Фильмы [HD 720p, 1080p] (Звук Cam, VO, DVO) [ 3.32 GB ] Солёное поле боя / Salting the Battlefield [2014 BDRip 720p by msltel] VO msltel Скачать
    1 | 0
    Фильмы 2014 (Звук TS, Cam, VO, DVO) [ 2 GB ] Солёное поле боя / Salting the Battlefield [2014 BDRip AVC by msltel] VO msltel Скачать
    1 | 0
    Фильмы 2014 (Звук TS, Cam, VO, DVO) [ 1.37 GB ] Солёное поле боя / Salting the Battlefield [2014 WEB-DLRip Любительский Ворон Скачать
    1 | 0

    28-11-2019 20:33  

    Отключить всю рекламу на сайте

    16-07-2015 20:03 Солёное поле боя Скачать торрент  

    Спасибо, норм фильм, можно смотреть!pb.wtf



      Дорогой пользователь! Огромная просьба, поблагодарите релизера, оцените раздачу и оставьте свои комментарий, если Вы скачали Солёное поле боя через торрент бесплатно! Внесите свою лепту в развитие PiratBit!
      Комментировать посты могут только пользователи прошедшие не сложную регистрацию
      Показать сообщения:    

      Солёное поле боя через торрент
      Скачать бесплатно Солёное поле боя
      Солёное поле боя скачать торрент
      Солёное поле боя смотреть онлайн
      Cкачать фильм Солёное поле боя бесплатно
      Солёное поле боя скачать торрент в хорошем качестве
      Солёное поле боя смотреть онлайн бесплатно в хорошем качестве


      Вы не можете начинать темы
      Вы не можете отвечать на сообщения
      Вы не можете редактировать свои сообщения
      Вы не можете удалять свои сообщения
      Вы не можете голосовать в опросах
      Вы не можете прикреплять файлы к сообщениям
      Вы можете скачивать файлы