Ссылка на приватное зеркало нашего сайта всего за 1$. Внимание количество ограничено!!!

2 сезон

iTunes

1 сезон

1

iTunes

iTunes

iTunes

1 сезон

RePack

30

ИГРА 18+

pack

ВАЖНО

!!Акция!!

Alien_RageХит недели

RePack

MK11
pack

Забери бонус

RePack

jed

!!Акция!!

Alien_Rage

RePack

fifa19

RePack

Assassins Creed: Odyssey

RePack

NEED FOR SPEED™ PAYBACK

4 сезон

9 сезон

Бесстыжие 9 сезон

Все сериалы

все сериалы на PB.wtf

RePack

FAR CRY 5
  

Моя старушка / My Old Lady (Израэль Хоровиц) [2014, драма, мелодрама, комедия, HDRip, Любительский (двухголосый)[Lord32x Studio] pb.wtf

Моя старушка через торрент pb.wtf

Размер: 1.47 GB | Добавлен: 5 лет 3 мес. назад | Торрент скачан:66 раз
Скачать  

16-07-2015 17:50 Моя старушка Скачать торрент  


Моя старушка / My Old Lady
««He's in the will. She's in the way»»

ИНФОРМАЦИЯ:
Год выпуска:2014
Страна: Великобритания, Франция, США
Жанр: драма, мелодрама, комедия
Продолжительность: 01:47:29
Перевод: Любительский (двухголосый)[Lord32x Studio]
Режиссер: Израэль Хоровиц

В Ролях:


Кевин Клайн (Mathias Gold), Michael Burstin (Rabbi on Bicycle), Эли Важеман (Man at Gate), Мэгги Смит (Mathilde Girard), Рафаэль Мутье (Woman on Bicycle), Sophie Touitou (Female Opera Singer), Доминик Пинон (Auguste Lefebvre), Кристин Скотт Томас (Chloé Girard), Кристиан Раут (Furniture Dealer), Дэльфин Лэнсон (Femme de Ménage), Ноэми Львовски (Dr. Florence Horowitz), Стефан Де Гродт (Philippe)

Описание:
Американец наследует квартиру в Париже, в которой оказывается неожиданный житель.

  • Мировая премьера:10 сентября 2014

    ТЕХ.ДАННЫЕ:
    Качество: HDRip
    Формат: AVI
    Видео кодек: XviD
    Аудио кодек: AC3
    Видео: XviD, 720x304 (2.35:1), 1482 kbps, 23,976 fps, 0,283 bpp
    Аудио: AC3 / 5.1 / 48 kHz / 384 kbps / 16 bit


    Код:

    General
    Complete name                            : D:\Торенты\KinoRay.My.Old.Lady.2014.1500MB.HDRip.Lord32x.Studio.avi
    Format                                   : AVI
    Format/Info                              : Audio Video Interleave
    File size                                : 1.47 GiB
    Duration                                 : 1h 47mn
    Overall bit rate                         : 1 953 Kbps
    Writing application                      : VirtualDubMod 1.5.10.3 | www.virtualdub-fr.org || (build 2550/release)
    Writing library                          : VirtualDubMod build 2550/release

    Video
    ID                                       : 0
    Format                                   : MPEG-4 Visual
    Format profile                           : Advanced Simple@L5
    Format settings, BVOP                    : 1
    Format settings, QPel                    : No
    Format settings, GMC                     : No warppoints
    Format settings, Matrix                  : Default (H.263)
    Codec ID                                 : XVID
    Codec ID/Hint                            : XviD
    Duration                                 : 1h 47mn
    Bit rate                                 : 1 483 Kbps
    Width                                    : 720 pixels
    Height                                   : 304 pixels
    Display aspect ratio                     : 2.35:1
    Frame rate                               : 23.976 fps
    Color space                              : YUV
    Chroma subsampling                       : 4:2:0
    Bit depth                                : 8 bits
    Scan type                                : Progressive
    Compression mode                         : Lossy
    Bits/(Pixel*Frame)                       : 0.283
    Stream size                              : 1.11 GiB (76%)
    Writing library                          : XviD 1.2.1 (UTC 2008-12-04)

    Audio
    ID                                       : 1
    Format                                   : AC-3
    Format/Info                              : Audio Coding 3
    Mode extension                           : CM (complete main)
    Codec ID                                 : 2000
    Duration                                 : 1h 47mn
    Bit rate mode                            : Constant
    Bit rate                                 : 384 Kbps
    Channel(s)                               : 6 channels
    Channel positions                        : Front: L C R, Side: L R, LFE
    Sampling rate                            : 48.0 KHz
    Bit depth                                : 16 bits
    Compression mode                         : Lossy
    Stream size                              : 295 MiB (20%)
    Alignment                                : Split accross interleaves

    Скриншоты:


    © Оформление by Ворон
    pb.wtf



  • Скачать Моя старушка через торрент http://pic.kartinco.top/images/6/ordi9.jpg Скачать фильм Моя старушка через торрент бесплантно в хорошем качестве Описание: Американец наследует квартиру в Париже, в которой оказывается неожиданный житель. Мировая премьера:10 сентября 2014 ... 10 10 5
    Торрент: Зарегистрирован [2015-07-16 17:50] · скачан: 66 раз
    Статус: T временная
    Размер: 1.47 GB
    Как cкачать? Как скачать Моя старушка через торрент | qTorrent

    % Раздел Тема Автор DL S | L
    T Фильмы [HD 720p, 1080p] (Звук Cam, VO, DVO) [ 5.76 GB ] Моя старушка / My Old Lady [2014 BDRip 720p Любительский Ворон Скачать
    1 | 0

    28-11-2019 20:33  

    Отключить всю рекламу на сайте

    16-07-2015 18:31 Моя старушка Скачать торрент  

    интересно как скоро скоро ожидается айтюнс, год почти с премьеры уже pb.wtf



      Дорогой пользователь! Огромная просьба, поблагодарите релизера, оцените раздачу и оставьте свои комментарий, если Вы скачали Моя старушка через торрент бесплатно! Внесите свою лепту в развитие PiratBit!
      Комментировать посты могут только пользователи прошедшие не сложную регистрацию
      Показать сообщения:    

      Моя старушка через торрент
      Скачать бесплатно Моя старушка
      Моя старушка скачать торрент
      Моя старушка смотреть онлайн
      Cкачать фильм Моя старушка бесплатно
      Моя старушка скачать торрент в хорошем качестве
      Моя старушка смотреть онлайн бесплатно в хорошем качестве


      Вы не можете начинать темы
      Вы не можете отвечать на сообщения
      Вы не можете редактировать свои сообщения
      Вы не можете удалять свои сообщения
      Вы не можете голосовать в опросах
      Вы не можете прикреплять файлы к сообщениям
      Вы можете скачивать файлы