Ссылка на приватное зеркало всего за 1$. Внимание количество ограничено!!!

iTunes

iTunes

iTunes

1

iTunes

iTunes

iTunes

iTunes

iTunes

30
pack

Новость дня

ВАЖНО

!!Акция!!

Alien_RageХит недели

RePack

Resident Evil 21

ИГРА 18+

pack

RePack

jed

!!Акция!!

Alien_Rage

RePack

fifa19

RePack

Assassins Creed: Odyssey

RePack

NEED FOR SPEED™ PAYBACK

4 сезон

9 сезон

Бесстыжие 9 сезон

Все сериалы

все сериалы на PB.wtf

RePack

FAR CRY 5
  

Единичка (Кирилл Белевич) [2015 г., военный, драма, DVDRip] pb.wtf

Единичка через торрент pb.wtf

Размер: 703 MB | Добавлен: 4 года 10 мес. назад | Торрент скачан:308 раз
Скачать  

28-06-2015 16:57 Единичка Скачать торрент  

Единичка
Год выпуска: 2015
Страна: Россия / Марс Медиа Энтертейнмент
Жанр: военный, драма
Продолжительность: 01:40:14

Режиссер: Кирилл Белевич

IMDB


В ролях: Андрей Мерзликин, Илья Коробко, Анна Прус, Арина Борисова, Александр Вершинин, Михаил Евланов, Микаэл Джанибекян, Сергей Габриэлян, Добрыня Белевич-Оболенский, Якуб Здруйковский

Описание: Август 1944-го. Советские войска продолжают наступление в Восточной Польше. Подразделение старшего лейтенанта Егорова получает задание — удержать мост, через который планируется переправа частей Советской Армии. Прибыв на позицию, бойцы обнаруживают разрушенный монастырь, а в нем — группу глухих сирот с воспитательницей Евой. Утратив веру, она нашла смысл жизни в спасении немощных и беззащитных детей. Лейтенант Егоров оказывается перед сложным выбором — выполняя приказ командования, он будет вынужден поставить под угрозу жизнь маленьких поляков. Артиллеристы изо всех сил стараются не допустить смерти детей...

Качество: DVDRip
Формат: AVI
Видео кодек: XviD
Аудио кодек: MP3
Видео: 640x272 (2.35:1), 25 fps, XviD build 50 ~842 kbps avg, 0.19 bit/pixel
Аудио: 48 kHz, MPEG Layer 3, 2 ch, ~128.00 kbps avg
скриншот   скриншот   скриншот   скриншот   скриншот   скриншот   скриншот   скриншот   скриншот   скриншот  

Общее
Полное имя : F:\кино\Единичка.2015.O.DVDRip.700MB.avi
Формат : AVI
Формат/Информация : Audio Video Interleave
Размер файла : 703 Мбайт
Продолжительность : 1 ч. 40 м.
Общий поток : 980 Кбит/сек
Программа кодирования : VirtualDubMod 1.5.10.3 | www.virtualdub-fr.org || (build 2550/release)
Библиотека кодирования : VirtualDubMod build 2550/release

Видео
Идентификатор : 0
Формат : MPEG-4 Visual
Профиль формата : Advanced Simple@L5
Параметр BVOP формата : 2
Параметр QPel формата : Нет
Параметр GMC формата : Без точки перехода
Параметр матрицы формата : Default (H.263)
Идентификатор кодека : XVID
Идентификатор кодека/Подсказка : XviD
Продолжительность : 1 ч. 40 м.
Битрейт : 843 Кбит/сек
Ширина : 640 пикселей
Высота : 272 пикселя
Соотношение сторон : 2,35:1
Частота кадров : 25,000 кадров/сек
Цветовое пространство : YUV
Субдискретизация насыщенности : 4:2:0
Битовая глубина : 8 бит
Тип развёртки : Прогрессивная
Метод сжатия : С потерями
Бит/(Пиксели*Кадры) : 0.194
Размер потока : 604 Мбайт (86%)
Библиотека кодирования : XviD 1.2.1 (UTC 2008-12-04)

Аудио
Идентификатор : 1
Формат : MPEG Audio
Версия формата : Version 1
Профиль формата : Layer 3
Режим : Joint stereo
Идентификатор кодека : 55
Идентификатор кодека/Подсказка : MP3
Продолжительность : 1 ч. 40 м.
Вид битрейта : Постоянный
Битрейт : 128 Кбит/сек
Каналы : 2 канала
Частота : 48,0 КГц
Метод сжатия : С потерями
Размер потока : 91,8 Мбайт (13%)
Выравнивание : Соединение по промежуткам
Продолжительность промежутка : 40 мс. (1,00 видеокадр)
Время предзагрузки промежутка : 504 мс.
Библиотека кодирования : LAME3.99r
Настройки программы : -m j -V 4 -q 2 -lowpass 17 -b 128

pb.wtf



Скачать Единичка через торрент http://pic1.kartinco.top/images/10/36ls2.jpg Скачать фильм Единичка через торрент бесплантно в хорошем качестве Описание: Август 1944-го. Советские войска продолжают наступление в Восточной Польше. Подразделение старшего лейтенанта Егорова получает ... 9.8 10 24
Info! Золотая раздача, скачанное не засчитывается.
Торрент: Зарегистрирован [2015-07-16 18:48] · скачан: 308 раз
Статус: √ проверено
Размер: 703 MB
Как cкачать? Как скачать Единичка через торрент | qTorrent

% Раздел Тема Автор DL S | L
Наши новые фильмы 2015 [ 1.46 GB ] Единичка [2015 Военный BDRip] [GER Transfer / ] bober100 Скачать
4 | 0
Наши фильмы (DVD фильмы) [ 5.69 GB ] Единичка [2015 военный DVD9] Ворон Скачать
1 | 0
Наши новые фильмы 2015 [ 746 MB ] Единичка [2015 Военный BDRip] [GER Transfer / ] bober100 Скачать
2 | 0
Наши фильмы (HD, WEB-DL 720p, 1080p) [ 4.12 GB ] Единичка [2015 военный BDRip 720p] [GER Transfer] [] - KORSAR kisa1980 Скачать
2 | 0
Наши фильмы (HD, WEB-DL 720p, 1080p) [ 3.56 GB ] Единичка [2015 военный WEB-DL 1080p] Ворон Скачать
1 | 0
Наши новые фильмы 2015 [ 1.46 GB ] Единичка [2015 военный DVDRip] Ворон Скачать
1 | 0
Наши новые фильмы 2015 [ 2.43 GB ] Единичка [2015 военный DVDRip-AVC ] Ворон Скачать
1 | 0

28-11-2019 20:33  

Отключить всю рекламу на сайте

28-06-2015 19:27 Единичка Скачать торрент  

Неполная версия!pb.wtf



17-07-2015 10:05 Единичка Скачать торрент  

фильм классный....не ожидал....любителям военной тематики смотреть обязательно...побольше бы таких фильмов :shoot2:pb.wtf



10-09-2015 08:57 Единичка Скачать торрент  

концовки пару минут не хватаетpb.wtf



27-09-2015 18:17 Единичка Скачать торрент  

сказочка про войну.не тратьте время.pb.wtf



    Дорогой пользователь! Огромная просьба, поблагодарите релизера, оцените раздачу и оставьте свои комментарий, если Вы скачали Единичка через торрент бесплатно! Внесите свою лепту в развитие PiratBit!
    Комментировать посты могут только пользователи прошедшие не сложную регистрацию
    Показать сообщения:    

    Единичка через торрент
    Скачать бесплатно Единичка
    Единичка скачать торрент
    Единичка смотреть онлайн
    Cкачать фильм Единичка бесплатно
    Единичка скачать торрент в хорошем качестве
    Единичка смотреть онлайн бесплатно в хорошем качестве


    Вы не можете начинать темы
    Вы не можете отвечать на сообщения
    Вы не можете редактировать свои сообщения
    Вы не можете удалять свои сообщения
    Вы не можете голосовать в опросах
    Вы не можете прикреплять файлы к сообщениям
    Вы можете скачивать файлы