2 сезон

iTunes

1 сезон

1

iTunes

iTunes

iTunes

1 сезон

RePack

30

ИГРА 18+

pack

ВАЖНО

!!Акция!!

Alien_RageХит недели

RePack

MK11
pack

Забери бонус

RePack

jed

!!Акция!!

Alien_Rage

RePack

fifa19

RePack

Assassins Creed: Odyssey

RePack

NEED FOR SPEED™ PAYBACK

4 сезон

9 сезон

Бесстыжие 9 сезон

Все сериалы

все сериалы на PB.wtf

RePack

FAR CRY 5
  

Большой Лебовски / The Big Lebowski (Джоэл Коэн, Итан Коэн) [1998, комедия, криминал, BDRip 1080p] DUB + 2хMVO + 5xAVO + VO pb.wtf

Большой Лебовски через торрент pb.wtf

Раздают: 1 [ 0 KB/s ]
Размер: 19.96 GB | Добавлен: 3 года 6 мес. назад | Торрент скачан:267 раз
Скачать  

16-07-2015 19:27 Большой Лебовски Скачать торрент  

Большой Лебовски / The Big Lebowski«It takes guys as simple as the Dude and Walter to make a story this complicated... and they'd really rather be bowling»

  • Год выхода: 1998
  • Жанр: комедия, криминал

  • Страна: США, Великобритания
  • Продолжительность: 01:57:23
  • Перевод: Дубляж; Профессиональный многоголосый; Авторский; Любительский одноголосый
  • Cубтитры: русские (Forced), русские (Full-R5), русские (Киномания, присутствует ненормативная лексика), русские (Дмитрий «Гоблин» Пучков, присутствует ненормативная лексика), английские
  • Режиссер: Джоэл Коэн, Итан Коэн
  • В ролях:

    Джефф Бриджес (The Dude), Джон Гудман (Walter Sobchak), Джулианна Мур (Maude Lebowski), Стив Бушеми (Theodore Donald «Donny» Kerabatsos), Дэвид Хаддлстон (The Big Lebowski), Филип Сеймур Хоффман (Brandt), Тара Рид (Bunny Lebowski), Бен Газзара (Jackie Treehorn), Сэм Эллиотт (The Stranger), Петер Стормаре («Karl Hungus»), Джон Полито (Da Fino), Джон Туртурро (Jesus Quintana)
  • Описание:

    Лос-Анджелес, 1991 год, война в Персидском заливе. Главный герой по прозвищу «Чувак» считает себя совершенно счастливым человеком. Его жизнь составляют игра в боулинг и выпивка. Но внезапно его счастье нарушается, гангстеры по ошибке принимают его за миллионера-однофамильца, требуют деньги, о которых он ничего не подозревает, и, ко всему прочему, похищают жену миллионера, будучи уверенными, что «муж» выплатит за нее любую сумму.

  • Качество: BDRip 1080p
  • Формат: MKV
  • Видео кодек: AVC
  • Аудио кодек: AC3, DTS
  • Видео: AVC, 1920x1040 (16:9), 14200 kbps, 23,976 fps, 0,297 bpp
  • Аудио №1: русский / AC3 / 5.1 / 48 kHz / 384 kbps / 16 bit |Дубляж|
  • Аудио №2: русский / DTS / 2.0 / 48 kHz / 755 kbps / 24 bit |Многоголосый закадровый, Blu-ray CEE|
  • Аудио №3: русский / DTS / 5.1 / 48 kHz / 1510 kbps / 24 bit |Одноголосый закадровый, А.Гаврилов|
  • Аудио №4: русский / AC3 / 5.1 / 48 kHz / 448 kbps / 16 bit |Многоголосый закадровый, d2Lab|
  • Аудио №5: русский / DTS / 5.1 / 48 kHz / 1510 kbps / 24 bit |Одноголосый закадровый, Ю.Живов|
  • Аудио №6: русский / DTS / 5.1 / 48 kHz / 1510 kbps / 24 bit |Одноголосый закадровый, Ю.Сербин|
  • Аудио №7: русский / DTS / 5.1 / 48 kHz / 1510 kbps / 24 bit |Одноголосый закадровый, Дмитрий «Гоблин» Пучков|
  • Аудио №8: русский / AC3 / 2.0 / 48 kHz / 256 kbps / 16 bit |Одноголосый закадровый, В.Горчаков|
  • Аудио №9: русский / DTS / 5.1 / 48 kHz / 755 kbps / 24 bit |Одноголосый закадровый, Э.Шиндяпин|
  • Аудио №10: английский / DTS / 5.1 / 48 kHz / 1510 kbps / 24 bit
  • Навигация по главам: есть

    Код:

    General
    Unique ID                                : 176517470032429185199514463427361489451 (0x84CC073327577AB28054CB7F3B2BC22B)
    Complete name                            : H:\The.Big.Lebowski.1998.1080p.BluRay.9xRus.Eng.HDCLUB.mkv
    Format                                   : Matroska
    Format version                           : Version 2
    File size                                : 20.0 GiB
    Duration                                 : 1h 57mn
    Overall bit rate                         : 24.3 Mbps
    Movie name                               : Большой Лебовски / The Big Lebowski.1998
    Encoded date                             : UTC 2012-09-07 23:32:31
    Writing application                      : mkvmerge v3.4.0 ('Rapunzel') сборка от May 15 2010 09:38:20
    Writing library                          : libebml v0.8.0 + libmatroska v0.9.0

    Video
    ID                                       : 1
    Format                                   : AVC
    Format/Info                              : Advanced Video Codec
    Format profile                           : High@L4.1
    Format settings, CABAC                   : Yes
    Format settings, ReFrames                : 4 frames
    Codec ID                                 : V_MPEG4/ISO/AVC
    Duration                                 : 1h 57mn
    Bit rate                                 : 14.2 Mbps
    Width                                    : 1 920 pixels
    Height                                   : 1 040 pixels
    Display aspect ratio                     : 16:9
    Frame rate                               : 23.976 fps
    Color space                              : YUV
    Chroma subsampling                       : 4:2:0
    Bit depth                                : 8 bits
    Scan type                                : Progressive
    Bits/(Pixel*Frame)                       : 0.297
    Stream size                              : 11.2 GiB (56%)
    Writing library                          : x264 core 125 r2200 999b753
    Encoding settings                        : cabac=1 / ref=4 / deblock=1:-3:-3 / analyse=0x3:0x133 / me=umh / subme=11 / psy=1 / psy_rd=1.05:0.15 / mixed_ref=1 / me_range=32 / chroma_me=1 / trellis=2 / 8x8dct=1 / cqm=0 / deadzone=21,11 / fast_pskip=0 / chroma_qp_offset=-3 / threads=12 / lookahead_threads=2 / sliced_threads=0 / nr=0 / decimate=1 / interlaced=0 / bluray_compat=0 / constrained_intra=0 / bframes=9 / b_pyramid=2 / b_adapt=2 / b_bias=0 / direct=3 / weightb=1 / open_gop=0 / weightp=2 / keyint=240 / keyint_min=22 / scenecut=40 / intra_refresh=0 / rc_lookahead=60 / rc=2pass / mbtree=1 / bitrate=14200 / ratetol=1.0 / qcomp=0.70 / qpmin=0 / qpmax=69 / qpstep=4 / cplxblur=20.0 / qblur=0.5 / vbv_maxrate=50000 / vbv_bufsize=62500 / nal_hrd=none / ip_ratio=1.40 / aq=2:1.00
    Language                                 : English
    Default                                  : No
    Forced                                   : No
    Matrix coefficients                      : BT.709-5, BT.1361, IEC 61966-2-4 709, SMPTE RP177

    Audio #1
    ID                                       : 2
    Format                                   : AC-3
    Format/Info                              : Audio Coding 3
    Mode extension                           : CM (complete main)
    Codec ID                                 : A_AC3
    Duration                                 : 1h 57mn
    Bit rate mode                            : Constant
    Bit rate                                 : 384 Kbps
    Channel(s)                               : 6 channels
    Channel positions                        : Front: L C R, Side: L R, LFE
    Sampling rate                            : 48.0 KHz
    Bit depth                                : 16 bits
    Compression mode                         : Lossy
    Stream size                              : 322 MiB (2%)
    Title                                    : AC3 5.1 Dubl
    Language                                 : Russian
    Default                                  : Yes
    Forced                                   : No

    Audio #2
    ID                                       : 3
    Format                                   : DTS
    Format/Info                              : Digital Theater Systems
    Codec ID                                 : A_DTS
    Duration                                 : 1h 57mn
    Bit rate mode                            : Constant
    Bit rate                                 : 755 Kbps
    Channel(s)                               : 2 channels
    Channel positions                        : Front: L R
    Sampling rate                            : 48.0 KHz
    Bit depth                                : 24 bits
    Compression mode                         : Lossy
    Stream size                              : 634 MiB (3%)
    Title                                    : DTS 2.0 MVO-Blu-ray CEE
    Language                                 : Russian
    Default                                  : No
    Forced                                   : No

    Audio #3
    ID                                       : 4
    Format                                   : DTS
    Format/Info                              : Digital Theater Systems
    Codec ID                                 : A_DTS
    Duration                                 : 1h 57mn
    Bit rate mode                            : Constant
    Bit rate                                 : 1 510 Kbps
    Channel(s)                               : 6 channels
    Channel positions                        : Front: L C R, Side: L R, LFE
    Sampling rate                            : 48.0 KHz
    Bit depth                                : 24 bits
    Compression mode                         : Lossy
    Stream size                              : 1.24 GiB (6%)
    Title                                    : DTS 5.1 AVO-А.Гаврилов
    Language                                 : Russian
    Default                                  : No
    Forced                                   : No

    Audio #4
    ID                                       : 5
    Format                                   : AC-3
    Format/Info                              : Audio Coding 3
    Mode extension                           : CM (complete main)
    Codec ID                                 : A_AC3
    Duration                                 : 1h 57mn
    Bit rate mode                            : Constant
    Bit rate                                 : 448 Kbps
    Channel(s)                               : 6 channels
    Channel positions                        : Front: L C R, Side: L R, LFE
    Sampling rate                            : 48.0 KHz
    Bit depth                                : 16 bits
    Compression mode                         : Lossy
    Stream size                              : 376 MiB (2%)
    Title                                    : AC3 5.1 MVO-d2Lab
    Language                                 : Russian
    Default                                  : No
    Forced                                   : No

    Audio #5
    ID                                       : 6
    Format                                   : DTS
    Format/Info                              : Digital Theater Systems
    Codec ID                                 : A_DTS
    Duration                                 : 1h 57mn
    Bit rate mode                            : Constant
    Bit rate                                 : 1 510 Kbps
    Channel(s)                               : 6 channels
    Channel positions                        : Front: L C R, Side: L R, LFE
    Sampling rate                            : 48.0 KHz
    Bit depth                                : 24 bits
    Compression mode                         : Lossy
    Stream size                              : 1.24 GiB (6%)
    Title                                    : DTS 5.1 AVO-Ю.Живов
    Language                                 : Russian
    Default                                  : No
    Forced                                   : No

    Audio #6
    ID                                       : 7
    Format                                   : DTS
    Format/Info                              : Digital Theater Systems
    Codec ID                                 : A_DTS
    Duration                                 : 1h 57mn
    Bit rate mode                            : Constant
    Bit rate                                 : 1 510 Kbps
    Channel(s)                               : 6 channels
    Channel positions                        : Front: L C R, Side: L R, LFE
    Sampling rate                            : 48.0 KHz
    Bit depth                                : 24 bits
    Compression mode                         : Lossy
    Stream size                              : 1.24 GiB (6%)
    Title                                    : DTS 5.1 AVO-Ю.Сербин
    Language                                 : Russian
    Default                                  : No
    Forced                                   : No

    Audio #7
    ID                                       : 8
    Format                                   : DTS
    Format/Info                              : Digital Theater Systems
    Codec ID                                 : A_DTS
    Duration                                 : 1h 57mn
    Bit rate mode                            : Constant
    Bit rate                                 : 1 510 Kbps
    Channel(s)                               : 6 channels
    Channel positions                        : Front: L C R, Side: L R, LFE
    Sampling rate                            : 48.0 KHz
    Bit depth                                : 24 bits
    Compression mode                         : Lossy
    Stream size                              : 1.24 GiB (6%)
    Title                                    : DTS 5.1 AVO-Дмитрий «Гоблин» Пучков
    Language                                 : Russian
    Default                                  : No
    Forced                                   : No

    Audio #8
    ID                                       : 9
    Format                                   : AC-3
    Format/Info                              : Audio Coding 3
    Format profile                           : Dolby Digital
    Mode extension                           : CM (complete main)
    Codec ID                                 : A_AC3
    Duration                                 : 1h 57mn
    Bit rate mode                            : Constant
    Bit rate                                 : 256 Kbps
    Channel(s)                               : 2 channels
    Channel positions                        : Front: L R
    Sampling rate                            : 48.0 KHz
    Bit depth                                : 16 bits
    Compression mode                         : Lossy
    Stream size                              : 215 MiB (1%)
    Title                                    : AC3 2.0 AVO-В.Горчаков
    Language                                 : Russian
    Default                                  : No
    Forced                                   : No

    Audio #9
    ID                                       : 10
    Format                                   : DTS
    Format/Info                              : Digital Theater Systems
    Codec ID                                 : A_DTS
    Duration                                 : 1h 57mn
    Bit rate mode                            : Constant
    Bit rate                                 : 755 Kbps
    Channel(s)                               : 6 channels
    Channel positions                        : Front: L C R, Side: L R, LFE
    Sampling rate                            : 48.0 KHz
    Bit depth                                : 24 bits
    Compression mode                         : Lossy
    Stream size                              : 634 MiB (3%)
    Title                                    : DTS 5.1 VO-Э.Шиндяпин
    Language                                 : Russian
    Default                                  : No
    Forced                                   : No

    Audio #10
    ID                                       : 11
    Format                                   : DTS
    Format/Info                              : Digital Theater Systems
    Codec ID                                 : A_DTS
    Duration                                 : 1h 57mn
    Bit rate mode                            : Constant
    Bit rate                                 : 1 510 Kbps
    Channel(s)                               : 6 channels
    Channel positions                        : Front: L C R, Side: L R, LFE
    Sampling rate                            : 48.0 KHz
    Bit depth                                : 24 bits
    Compression mode                         : Lossy
    Stream size                              : 1.24 GiB (6%)
    Title                                    : DTS 5.1 Original
    Language                                 : English
    Default                                  : No
    Forced                                   : No

    Text #1
    ID                                       : 12
    Format                                   : UTF-8
    Codec ID                                 : S_TEXT/UTF8
    Codec ID/Info                            : UTF-8 Plain Text
    Title                                    : Forced
    Language                                 : Russian
    Default                                  : Yes
    Forced                                   : No

    Text #2
    ID                                       : 13
    Format                                   : UTF-8
    Codec ID                                 : S_TEXT/UTF8
    Codec ID/Info                            : UTF-8 Plain Text
    Title                                    : Full-R5
    Language                                 : Russian
    Default                                  : No
    Forced                                   : No

    Text #3
    ID                                       : 14
    Format                                   : UTF-8
    Codec ID                                 : S_TEXT/UTF8
    Codec ID/Info                            : UTF-8 Plain Text
    Title                                    : Киномания (присутствует ненормативная лексика)
    Language                                 : Russian
    Default                                  : No
    Forced                                   : No

    Text #4
    ID                                       : 15
    Format                                   : UTF-8
    Codec ID                                 : S_TEXT/UTF8
    Codec ID/Info                            : UTF-8 Plain Text
    Title                                    : Дмитрий «Гоблин» Пучков (присутствует ненормативная лексика)
    Language                                 : Russian
    Default                                  : No
    Forced                                   : No

    Text #5
    ID                                       : 16
    Format                                   : UTF-8
    Codec ID                                 : S_TEXT/UTF8
    Codec ID/Info                            : UTF-8 Plain Text
    Title                                    : Original
    Language                                 : English
    Default                                  : No
    Forced                                   : No

    Menu
    00:00:00.000                             : en:00:00:00.000
    00:03:46.059                             : en:00:03:46.059
    00:05:38.213                             : en:00:05:38.213
    00:07:40.210                             : en:00:07:40.210
    00:10:03.269                             : en:00:10:03.269
    00:16:28.738                             : en:00:16:28.738
    00:20:02.743                             : en:00:20:02.743
    00:25:04.628                             : en:00:25:04.628
    00:29:28.934                             : en:00:29:28.934
    00:37:19.946                             : en:00:37:19.946
    00:42:39.599                             : en:00:42:39.599
    00:48:13.307                             : en:00:48:13.307
    00:54:35.522                             : en:00:54:35.522
    01:01:41.323                             : en:01:01:41.323
    01:07:00.183                             : en:01:07:00.183
    01:13:45.671                             : en:01:13:45.671
    01:20:30.075                             : en:01:20:30.075
    01:26:06.036                             : en:01:26:06.036
    01:39:33.509                             : en:01:39:33.509
    01:44:29.263                             : en:01:44:29.263
    01:49:20.929                             : en:01:49:20.929
    01:52:37.751                             : en:01:52:37.751

    Скриншоты:
    pb.wtf



  • Скачать Большой Лебовски через торрент http://s018.radikal.ru/i524/1507/99/02447a7006ca.png Скачать фильм Большой Лебовски через торрент бесплантно в хорошем качестве Описание: Лос-Анджелес, 1991 год, война в Персидском заливе. Главный герой по прозвищу «Чувак» считает себя совершенно счастливым ... 9.5 10 17
    Info! Золотая раздача, скачанное не засчитывается.
    Торрент: Зарегистрирован [2017-04-26 22:24] · скачан: 267 раз
    Статус: √ проверено
    Размер: 19.96 GB
    Как cкачать? Как скачать Большой Лебовски через торрент | qTorrent



    Последний раз редактировалось: -Lexx- (2016-04-13 06:39), всего редактировалось 2 раз(а)

    28-11-2019 20:33  

    Отключить всю рекламу на сайте

    16-07-2015 20:50 Большой Лебовски Скачать торрент  

    Спасибо, норм, позитифф комедоз! )))pb.wtf



    17-07-2015 05:51 Большой Лебовски Скачать торрент  

    Смотреть исключительно в переводе Гоблина.pb.wtf



    17-07-2015 14:04 Большой Лебовски Скачать торрент  

    ржачный угар?pb.wtf



    18-07-2015 00:35 Большой Лебовски Скачать торрент  

    Спасибо добрый -Lexx-.pb.wtf



    12-04-2016 18:48 Большой Лебовски Скачать торрент  

    -Lexx-! проснись! дай скорости!pb.wtf
    K-Lexx- писал(а):

    Перезалил 2016-04-13 в 08:05 по МСК. Теперь сиды есть, перекачайте торрент-файл.



    13-04-2016 07:26 Большой Лебовски Скачать торрент  

    Шикарнейший фильм, спасибо за раздачуpb.wtf
    K-Lexx- писал(а):

    Приятного просмотра.



    13-04-2016 17:56 Большой Лебовски Скачать торрент  

    6666666666 писал(а):

    Шикарнейший фильм, спасибо за раздачу

    Ни чё не понял что там шикарнейшего чуть не уснулpb.wtf



    17-04-2016 08:17 Большой Лебовски Скачать торрент  

    Комедия то что надо) pb.wtf



    26-04-2017 23:26 Большой Лебовски Скачать торрент  

    Не зря ждал, ОГРОМНОЕ спасибо!pb.wtf



      Дорогой пользователь! Огромная просьба, поблагодарите релизера, оцените раздачу и оставьте свои комментарий, если Вы скачали Большой Лебовски через торрент бесплатно! Внесите свою лепту в развитие PiratBit!
      Комментировать посты могут только пользователи прошедшие не сложную регистрацию
      Показать сообщения:    

      Большой Лебовски через торрент
      Скачать бесплатно Большой Лебовски
      Большой Лебовски скачать торрент
      Большой Лебовски смотреть онлайн
      Cкачать фильм Большой Лебовски бесплатно
      Большой Лебовски скачать торрент в хорошем качестве
      Большой Лебовски смотреть онлайн бесплатно в хорошем качестве


      Вы не можете начинать темы
      Вы не можете отвечать на сообщения
      Вы не можете редактировать свои сообщения
      Вы не можете удалять свои сообщения
      Вы не можете голосовать в опросах
      Вы не можете прикреплять файлы к сообщениям
      Вы можете скачивать файлы