Ссылка на приватное зеркало всего за 1$. Внимание количество ограничено!!!

iTunes

iTunes

iTunes

1

iTunes

iTunes

iTunes

iTunes

iTunes

30
pack

Новость дня

ВАЖНО

!!Акция!!

Alien_RageХит недели

RePack

Resident Evil 21

ИГРА 18+

pack

RePack

jed

!!Акция!!

Alien_Rage

RePack

fifa19

RePack

Assassins Creed: Odyssey

RePack

NEED FOR SPEED™ PAYBACK

4 сезон

9 сезон

Бесстыжие 9 сезон

Все сериалы

все сериалы на PB.wtf

RePack

FAR CRY 5
  

Дабл трабл (Эдуард Оганесян) [2015, комедия, мелодрама, DVDRip, ] pb.wtf

Дабл трабл через торрент pb.wtf

Размер: 1.37 GB | Добавлен: 4 года 10 мес. назад | Торрент скачан:819 раз
Скачать  

17-07-2015 04:01 Дабл трабл Скачать торрент  


Дабл трабл
««Беда не приходит одна»»

ИНФОРМАЦИЯ:
Год выпуска:2015
Страна: Россия
Жанр: комедия, мелодрама
Продолжительность: 01:20:32
Перевод: Не требуется
Режиссер: Эдуард Оганесян

В Ролях:


Даниил Белых (Роман), Екатерина Варнава (Саша), Лера Куликова (Алена), Даниил Кузнец, Слава, Сергей Мезенцев, Владимир Тишко, Юлия Морозова, Лена Горностаева, Саймон

Описание:
Роман ведет холостяцкий образ жизни и свое шоу на радио. Как заправский психолог он раздает советы слушателям, приправляя их колкими шутками. Пока одна из них не оборачивается против него самого. На вопрос 20-летней Алены, ехать ли ей к отцу, Роман отвечает «Конечно! Я был бы рад». Он не знает, что в эфире - плод его случайной связи, а он сам в одночасье стал не только отцом, но и дедушкой Алениного сына. Новоиспеченные родственники погружают в ад беззаботного Романа и его девушку Сашу, светскую львицу и владелицу радиостанции. Не меньшее разочарование ждет и Алену. Только чудо сможет сделать их четверых одной семьей...

  • Мировая премьера:4 июня 2015

    ТЕХ.ДАННЫЕ:
    Качество: DVDRip
    Формат: AVI
    Видео кодек: XviD
    Аудио кодек: AC3
    Видео: XviD, 720x304 (2.35:1), 1875 kbps, 25 fps, 0,343 bpp
    Аудио: AC3 / 5.1 / 48 kHz / 448 kbps / 16 bit


    Код:

    General
    Complete name                            : D:\Торенты\Dabl.Trabl.2015.DVDRip.avi
    Format                                   : AVI
    Format/Info                              : Audio Video Interleave
    File size                                : 1.37 GiB
    Duration                                 : 1h 20mn
    Overall bit rate                         : 2 429 Kbps
    Writing application                      : VirtualDubMod 1.5.10.3 | www.virtualdub-fr.org || (build 2550/release)
    Writing library                          : VirtualDubMod build 2550/release

    Video
    ID                                       : 0
    Format                                   : MPEG-4 Visual
    Format profile                           : Advanced Simple@L5
    Format settings, BVOP                    : 3
    Format settings, QPel                    : No
    Format settings, GMC                     : No warppoints
    Format settings, Matrix                  : Custom
    Codec ID                                 : XVID
    Codec ID/Hint                            : XviD
    Duration                                 : 1h 20mn
    Bit rate                                 : 1 875 Kbps
    Width                                    : 720 pixels
    Height                                   : 304 pixels
    Display aspect ratio                     : 2.35:1
    Frame rate                               : 25.000 fps
    Color space                              : YUV
    Chroma subsampling                       : 4:2:0
    Bit depth                                : 8 bits
    Scan type                                : Progressive
    Compression mode                         : Lossy
    Bits/(Pixel*Frame)                       : 0.343
    Stream size                              : 1.06 GiB (77%)
    Writing library                          : XviD 1.2.1 (UTC 2008-12-04)

    Audio
    ID                                       : 1
    Format                                   : AC-3
    Format/Info                              : Audio Coding 3
    Mode extension                           : CM (complete main)
    Codec ID                                 : 2000
    Duration                                 : 1h 20mn
    Bit rate mode                            : Constant
    Bit rate                                 : 448 Kbps
    Channel(s)                               : 6 channels
    Channel positions                        : Front: L C R, Side: L R, LFE
    Sampling rate                            : 48.0 KHz
    Bit depth                                : 16 bits
    Compression mode                         : Lossy
    Stream size                              : 258 MiB (18%)
    Alignment                                : Split accross interleaves

    Скриншоты:


    © Оформление by Ворон
    pb.wtf



  • Скачать Дабл трабл через торрент http://pic.kartinco.top/images/6/ordi9.jpg Скачать фильм Дабл трабл через торрент бесплантно в хорошем качестве Описание: Роман ведет холостяцкий образ жизни и свое шоу на радио. Как заправский психолог он раздает советы слушателям, приправляя их ... 8.4 10 23
    Торрент: Зарегистрирован [2015-07-17 04:01] · скачан: 819 раз
    Статус: √ проверено
    Размер: 1.37 GB
    Как cкачать? Как скачать Дабл трабл через торрент | qTorrent

    % Раздел Тема Автор DL S | L
    Наши фильмы (HD, WEB-DL 720p, 1080p) [ 2.83 GB ] Дабл трабл [2015 WEB-DL 1080p] bober100 Скачать
    1 | 0
    Наши новые фильмы 2015 [ 745 MB ] Дабл трабл [2015 DVDRip ] [] Ворон Скачать
    1 | 0
    Наши новые фильмы 2015 [ 1.37 GB ] Дабл трабл [2015 WEBRip] ninla Скачать
    1 | 0

    28-11-2019 20:33  

    Отключить всю рекламу на сайте

      Дорогой пользователь! Огромная просьба, поблагодарите релизера, оцените раздачу и оставьте свои комментарий, если Вы скачали Дабл трабл через торрент бесплатно! Внесите свою лепту в развитие PiratBit!
      Комментировать посты могут только пользователи прошедшие не сложную регистрацию
      Показать сообщения:    

      Дабл трабл через торрент
      Скачать бесплатно Дабл трабл
      Дабл трабл скачать торрент
      Дабл трабл смотреть онлайн
      Cкачать фильм Дабл трабл бесплатно
      Дабл трабл скачать торрент в хорошем качестве
      Дабл трабл смотреть онлайн бесплатно в хорошем качестве


      Вы не можете начинать темы
      Вы не можете отвечать на сообщения
      Вы не можете редактировать свои сообщения
      Вы не можете удалять свои сообщения
      Вы не можете голосовать в опросах
      Вы не можете прикреплять файлы к сообщениям
      Вы можете скачивать файлы