Ссылка на приватное зеркало нашего сайта всего за 1$. Внимание количество ограничено!!!

2 сезон

iTunes

1 сезон

1

2 сезон

2 сезон

iTunes

1 сезон

RePack

30

Ultimate

ВАЖНО

ИГРА 18+

pack

RePack

MK11
pack

Забери бонус

RePack

jed

!!Акция!!

Alien_Rage

RePack

fifa19

RePack

Assassins Creed: Odyssey

RePack

NEED FOR SPEED™ PAYBACK

4 сезон

9 сезон

Бесстыжие 9 сезон

Все сериалы

все сериалы на PB.wtf

RePack

FAR CRY 5
  

Круг / Cirkeln (Леван Акин / Levan Akin) [2015, Швеция, фэнтези, триллер, драма, HDRip) VO [Vaxywod] pb.wtf

Круг через торрент pb.wtf

Размер: 2.04 GB | Добавлен: 5 лет 4 мес. назад | Торрент скачан:130 раз
Скачать  

17-07-2015 09:30 Круг Скачать торрент  

Круг / Cirkeln
«Magin vaknar»


  • Год выпуска: 2015
  • Страна: Швеция
  • Жанр: фэнтези, триллер, драма, детектив
  • Продолжительность: 02:23:35
  • Перевод: Любительский (одноголосый) [Vaxywod]

  • Режиссер: Леван Акин / Levan Akin
  • В ролях:

    Йозефин Асплунд (Rebecka Mohlin), Хелена Энгстрём (Anna-Karin Nieminen), Миранда Фридман (Vanessa Dahl), Ирма фон Платен (Minoo Falk Karimi), Ханна Асп (Ida Holmström), Леона Аксельсен (Linnéa Wallin), Рут Вега Фернандез (Adriana Lopez), Себастьян Хиорт аф Орнас (Kevin), Vincent Grahl (Gustaf), Джоанна Гранстром (Jannike Dahl), Сверрир Гуднасон (Max Rosenqvist), Дик Идман (Taisto Nieminen)

  • Описание:
    В маленьком шведском городке ученики местной школы готовятся к началу нового учебного года, ссорятся с друзьями, выясняют отношения с родителями... Жизнь идет своим чередом, пока однажды в школьном туалете не обнаруживают тело подростка и над городом не встает кроваво-красная луна. Оказывается, город стал местом борьбы добра и зла и теперь только от немногих избранных зависит исход мировой битвы...
  • Рейтинг:



  • Качество: HDRip
  • Формат: :AVI
  • Видео кодек: XviD
  • Аудио кодек: AC3
  • Видео: 720x304 (2.35:1), 1721 kbps, 24 fps, 0,328 bpp
  • Аудио: 2.0 / 48 kHz / 224 kbps / 16 bit
  • Релиз от: GEKADOL

    Код:

    General
    Complete name                            : D:\Фильмы\KruG.2015.L1.HDRip.2100Mb.Freerutor.avi
    Format                                   : AVI
    Format/Info                              : Audio Video Interleave
    File size                                : 2.04 GiB
    Duration                                 : 2h 23mn
    Overall bit rate                         : 2 035 Kbps
    Writing application                      : VirtualDubMod 1.5.10.3 | www.virtualdub-fr.org || (build 2550/release)
    Writing library                          : VirtualDubMod build 2550/release

    Video
    ID                                       : 0
    Format                                   : MPEG-4 Visual
    Format profile                           : Advanced Simple@L5
    Format settings, BVOP                    : 2
    Format settings, QPel                    : No
    Format settings, GMC                     : No warppoints
    Format settings, Matrix                  : Default (MPEG)
    Codec ID                                 : XVID
    Codec ID/Hint                            : XviD
    Duration                                 : 2h 23mn
    Bit rate                                 : 1 722 Kbps
    Width                                    : 720 pixels
    Height                                   : 304 pixels
    Display aspect ratio                     : 2.35:1
    Frame rate                               : 24.000 fps
    Color space                              : YUV
    Chroma subsampling                       : 4:2:0
    Bit depth                                : 8 bits
    Scan type                                : Progressive
    Compression mode                         : Lossy
    Bits/(Pixel*Frame)                       : 0.328
    Stream size                              : 1.73 GiB (85%)
    Writing library                          : XviD 1.2.1 (UTC 2008-12-04)

    Audio
    ID                                       : 1
    Format                                   : AC-3
    Format/Info                              : Audio Coding 3
    Mode extension                           : CM (complete main)
    Codec ID                                 : 2000
    Duration                                 : 2h 23mn
    Bit rate mode                            : Constant
    Bit rate                                 : 224 Kbps
    Channel(s)                               : 2 channels
    Channel positions                        : Front: L R
    Sampling rate                            : 48.0 KHz
    Bit depth                                : 16 bits
    Compression mode                         : Lossy
    Stream size                              : 230 MiB (11%)
    Alignment                                : Split accross interleaves




    Скриншоты:
    скриншот   скриншот   скриншот   скриншот   скриншот  
    скриншот  


    pb.wtf



  • Скачать Круг через торрент http://i2.imageban.ru/out/2015/07/17/5deb1d14595951dcaf7533af5dae0987.jpg Скачать фильм Круг через торрент бесплантно в хорошем качестве Описание: В маленьком шведском городке ученики местной школы готовятся к началу нового учебного года, ссорятся с друзьями, выясняют ... 8.3 10 7
    Торрент: Зарегистрирован [2015-07-17 09:30] · скачан: 130 раз
    Статус: T временная
    Размер: 2.04 GB
    Как cкачать? Как скачать Круг через торрент | qTorrent

    % Раздел Тема Автор DL S | L
    Фильмы с авторской озвучкой [ 2.2 GB ] Круг / Cirkeln / The Circle [2015 BDRip] [AVO] killermax2013 Скачать
    1 | 0


    Последний раз редактировалось: GEKADOL (2015-07-17 11:02), всего редактировалось 1 раз

    28-11-2019 20:33  

    Отключить всю рекламу на сайте

    17-07-2015 10:14 Круг Скачать торрент  

    Цитата:

    и теперь только от немногих избранных зависит исход мировой битвы...

    прямо мортал комбат :rofle:pb.wtf



    17-07-2015 10:53 Круг Скачать торрент  

    Оригинальное название на обложке прям до боли IKEA напомнило rofl Вот,оказывается,откуда черпают вдохновение в этой компании))pb.wtf



    23-07-2015 18:43 Круг Скачать торрент  

    Спокух пацаны! сщас глянем-отпишемся! шведы они ниче, елси только не про педер.. вопщем, я отпишусь, как оно, кинцо...pb.wtf



      Дорогой пользователь! Огромная просьба, поблагодарите релизера, оцените раздачу и оставьте свои комментарий, если Вы скачали Круг через торрент бесплатно! Внесите свою лепту в развитие PiratBit!
      Комментировать посты могут только пользователи прошедшие не сложную регистрацию
      Показать сообщения:    

      Круг через торрент
      Скачать бесплатно Круг
      Круг скачать торрент
      Круг смотреть онлайн
      Cкачать фильм Круг бесплатно
      Круг скачать торрент в хорошем качестве
      Круг смотреть онлайн бесплатно в хорошем качестве


      Вы не можете начинать темы
      Вы не можете отвечать на сообщения
      Вы не можете редактировать свои сообщения
      Вы не можете удалять свои сообщения
      Вы не можете голосовать в опросах
      Вы не можете прикреплять файлы к сообщениям
      Вы можете скачивать файлы