Ссылка на приватное зеркало нашего сайта всего за 1$. Внимание количество ограничено!!!

2 сезон

iTunes

1 сезон

1

iTunes

iTunes

iTunes

1 сезон

RePack

30

ИГРА 18+

pack

ВАЖНО

!!Акция!!

Alien_RageХит недели

RePack

MK11
pack

Забери бонус

RePack

jed

!!Акция!!

Alien_Rage

RePack

fifa19

RePack

Assassins Creed: Odyssey

RePack

NEED FOR SPEED™ PAYBACK

4 сезон

9 сезон

Бесстыжие 9 сезон

Все сериалы

все сериалы на PB.wtf

RePack

FAR CRY 5
  

Заключенный R / R (Тобиас Линдхольм / Tobias Lindholm, Михаэль Ноер / Michael Noer) [2010, Дания, драма, криминал, BDRip-AVC от sokol_ok] MVO [Лицензия] pb.wtf

Заключенный R через торрент pb.wtf

Раздают: 1 [ 0 KB/s ]
Размер: 2.18 GB | Добавлен: 5 лет 3 мес. назад | Торрент скачан:88 раз
Скачать  

17-07-2015 14:29 Заключенный R Скачать торрент  

Заключенный R
R




Страна: Дания
Жанр: драма, криминал

Год выпуска: 2010
Продолжительность: 01:36:02

Перевод: Профессиональный (многоголосый, закадровый) [Лицензия]
Субтитры: русские, английские, немецкие, датские
Оригинальная аудиодорожка: Датский

Режиссер: Тобиас Линдхольм / Tobias Lindholm, Михаэль Ноер / Michael Noer

В ролях: Йохан Филип Асбек, Дульфи Аль-Джабури, Роланд Мюллер, Якоб Гредстед, Омар Шаргави, Ким Винтер, Йорг Беутнагель, Ларс Йенсен, Джонни Нильсен, Клаус Сарик Педерсен, Суне Нёргаард, Claus Poulsen

Описание:
В тюрьму, известную на всю Данию своими жесткими условиями содержания, прибывает заключенный по имени Р. Здесь он будет отбывать срок за насилие. Тюрьма - это параллельный мир, со своими правилами, понятиями о чести и обязанностями. Тут на окнах - решетки, а пол залит кровью. Р помещают в отсек к самым агрессивным зекам. Здесь ему предстоит найти свое место, научиться перемещаться и бороться за выживание.


Релиз:

Автор рипа: Stalker oK

Сэмпл

Качество видео: BDRip-AVC [Blu-ray Remux 1080i]
Формат видео: MKV
Видео кодек: AVC
Аудио кодек: AC3
Видео: 2355 Кбит/сек, 1088*612 (16:9), в 25,000 кадр/сек, AVC
Аудио №1: Russian, 448 Кбит/сек, 48,0 КГц, 16 бит, 6 канала(ов), AC-3
Аудио №2: Danish, 448 Кбит/сек, 48,0 КГц, 16 бит, 6 канала(ов), AC-3
Навигация по главам: есть
Общее
Уникальный идентификатор : 223739186099623039310051702536267962751 (0xA852998E14520A5DB072ECB970B5197F)
Полное имя : M:\Рипы\Заключённый R\R.2010.BDRip-AVC.MVO.2.18Gb...stalkerok.new-team.mkv
Формат : Matroska
Размер файла : 2,18 Гбайт
Продолжительность : 1 ч. 36 м.
Общий поток : 3252 Кбит/сек
Название фильма : R (2010) (New-Team) (Rip by Stalker oK)
Дата кодирования : UTC 2015-07-17 14:04:02
Программа кодирования : mkvmerge v7.9.0 ('Birds') 64bit
Библиотека кодирования : libebml v1.3.1 + libmatroska v1.4.2

Видео
Идентификатор : 1
Формат : AVC
Формат/Информация : Advanced Video Codec
Профиль формата : High@L4.1
Параметр CABAC формата : Да
Параметр ReFrames формата : 11 кадры
Идентификатор кодека : V_MPEG4/ISO/AVC
Продолжительность : 1 ч. 36 м.
Битрейт : 2355 Кбит/сек
Ширина : 1088 пикс.
Высота : 612 пикс.
Соотношение сторон : 16:9
Частота кадров : 25,000 кадр/сек
Цветовое пространство : YUV
Подвыборка цветности : 4:2:0
Битовая глубина : 8 бит
Тип развёртки : Прогрессивная
Бит/(Пиксели*Кадры) : 0.141
Размер потока : 1,54 Гбайт (70%)
Заголовок : R (2010) (New-Team) (Rip by Stalker oK)
Библиотека кодирования : x264 core 146 r2538kMod 121396c
Настройки программы : cabac=1 / ref=11 / deblock=1:-3:-2 / analyse=0x3:0x133 / me=umh / subme=11 / psy=1 / fade_compensate=0.00 / psy_rd=1.00:0.10 / mixed_ref=1 / me_range=32 / chroma_me=1 / trellis=2 / 8x8dct=1 / cqm=0 / deadzone=21,11 / fast_pskip=0 / chroma_qp_offset=-3 / threads=12 / lookahead_threads=3 / sliced_threads=0 / nr=0 / decimate=0 / interlaced=0 / bluray_compat=0 / constrained_intra=0 / fgo=0 / bframes=13 / b_pyramid=2 / b_adapt=2 / b_bias=0 / direct=3 / weightb=1 / open_gop=0 / weightp=2 / keyint=250 / keyint_min=25 / scenecut=40 / intra_refresh=0 / rc_lookahead=60 / rc=2pass / mbtree=0 / bitrate=2355 / ratetol=1.0 / qcomp=0.70 / qpmin=0 / qpmax=69 / qpstep=4 / cplxblur=20.0 / qblur=0.5 / vbv_maxrate=50000 / vbv_bufsize=62500 / nal_hrd=none / filler=0 / ip_ratio=1.40 / pb_ratio=1.30 / aq=3:0.80

Аудио #1
Идентификатор : 2
Формат : AC-3
Формат/Информация : Audio Coding 3
Расширение режима : CM (complete main)
Идентификатор кодека : A_AC3
Продолжительность : 1 ч. 36 м.
Вид битрейта : Постоянный
Битрейт : 448 Кбит/сек
Канал(ы) : 6 канала(ов)
Расположение каналов : Front: L C R, Side: L R, LFE
Частота : 48,0 КГц
Битовая глубина : 16 бит
Метод сжатия : С потерями
Размер потока : 308 Мбайт (14%)
Язык : Russian

Аудио #2
Идентификатор : 3
Формат : AC-3
Формат/Информация : Audio Coding 3
Расширение режима : CM (complete main)
Идентификатор кодека : A_AC3
Продолжительность : 1 ч. 36 м.
Вид битрейта : Постоянный
Битрейт : 448 Кбит/сек
Канал(ы) : 6 канала(ов)
Расположение каналов : Front: L C R, Side: L R, LFE
Частота : 48,0 КГц
Битовая глубина : 16 бит
Метод сжатия : С потерями
Размер потока : 308 Мбайт (14%)
Язык : Danish

Текст #1
Идентификатор : 4
Формат : UTF-8
Идентификатор кодека : S_TEXT/UTF8
Идентификатор кодека/Информация : UTF-8 Plain Text
Язык : Russian

Текст #2
Идентификатор : 5
Формат : UTF-8
Идентификатор кодека : S_TEXT/UTF8
Идентификатор кодека/Информация : UTF-8 Plain Text
Язык : English

Текст #3
Идентификатор : 6
Формат : UTF-8
Идентификатор кодека : S_TEXT/UTF8
Идентификатор кодека/Информация : UTF-8 Plain Text
Язык : German

Текст #4
Идентификатор : 7
Формат : UTF-8
Идентификатор кодека : S_TEXT/UTF8
Идентификатор кодека/Информация : UTF-8 Plain Text
Язык : Danish

Меню
00:00:00.000 : en:00:00:00
00:07:53.000 : en:00:07:53
00:15:23.240 : en:00:15:23
00:21:05.240 : en:00:21:05
00:30:17.640 : en:00:30:17
00:39:09.920 : en:00:39:09
00:49:39.119 : en:00:49:39
00:56:28.599 : en:00:56:28
01:04:01.920 : en:01:04:01
01:11:49.760 : en:01:11:49
01:19:08.600 : en:01:19:08
01:27:55.479 : en:01:27:55
pb.wtf



Скачать Заключенный R через торрент http://i72.fastpic.ru/big/2015/0531/46/68ef8a2783b58e5344cc30bbd3f1b046.png Скачать фильм Заключенный R через торрент бесплантно в хорошем качестве Описание:В тюрьму, известную на всю Данию своими жесткими условиями содержания, прибывает заключенный по имени Р. Здесь он будет отбывать ... 5 10 1
Торрент: Зарегистрирован [2015-07-17 14:29] · скачан: 88 раз
Статус: √ проверено
Размер: 2.18 GB
Как cкачать? Как скачать Заключенный R через торрент | qTorrent

% Раздел Тема Автор DL S | L
Фильмы 2010 [ 1.45 GB ] Заключенный Р / R [2010 BDRip] MVO koenig Скачать
1 | 0
Фильмы 2010 [ 1.45 GB ] Заключенный R / R [2010 Дания BDRip-AVC от sokol_ok] MVO sokol_ok Скачать
2 | 0
Фильмы [HD 720p, 1080p] (Хороший звук DUB, MVO) [ 4.67 GB ] Заключенный R / R [2010 BDRip 720p от HDLine / ] Ворон Скачать
1 | 0
Фильмы 2010 [ 1.37 GB ] Заключенный R / R [2010 DVDRip] markfiter Скачать
1 | 0

28-11-2019 20:33  

Отключить всю рекламу на сайте

    Дорогой пользователь! Огромная просьба, поблагодарите релизера, оцените раздачу и оставьте свои комментарий, если Вы скачали Заключенный R через торрент бесплатно! Внесите свою лепту в развитие PiratBit!
    Комментировать посты могут только пользователи прошедшие не сложную регистрацию
    Показать сообщения:    

    Заключенный R через торрент
    Скачать бесплатно Заключенный R
    Заключенный R скачать торрент
    Заключенный R смотреть онлайн
    Cкачать фильм Заключенный R бесплатно
    Заключенный R скачать торрент в хорошем качестве
    Заключенный R смотреть онлайн бесплатно в хорошем качестве


    Вы не можете начинать темы
    Вы не можете отвечать на сообщения
    Вы не можете редактировать свои сообщения
    Вы не можете удалять свои сообщения
    Вы не можете голосовать в опросах
    Вы не можете прикреплять файлы к сообщениям
    Вы можете скачивать файлы