Ссылка на приватное зеркало нашего сайта всего за 1$. Внимание количество ограничено!!!

2 сезон

iTunes

1 сезон

1

iTunes

iTunes

iTunes

1 сезон

RePack

30

ИГРА 18+

pack

ВАЖНО

!!Акция!!

Alien_RageХит недели

RePack

MK11
pack

Забери бонус

RePack

jed

!!Акция!!

Alien_Rage

RePack

fifa19

RePack

Assassins Creed: Odyssey

RePack

NEED FOR SPEED™ PAYBACK

4 сезон

9 сезон

Бесстыжие 9 сезон

Все сериалы

все сериалы на PB.wtf

RePack

FAR CRY 5
  

Теория самоубийства / The Suicide Theory (Дрю Браун / Dru Brown) [2014, Австралия, драма, WEB-DLRip] DVO [datynet & Галина Васюкова] + ENG pb.wtf

Теория самоубийства через торрент pb.wtf

Размер: 1.46 GB | Добавлен: 5 лет 3 мес. назад | Торрент скачан:47 раз
Скачать  

18-07-2015 03:37 Теория самоубийства Скачать торрент  

Теория самоубийства / The Suicide Theory
«Верите ли вы в судьбу?»


  • Год выпуска: 2014
  • Страна: Австралия
  • Жанр: драма
  • Продолжительность: 01:36:07
  • Перевод: Любительский (двухголосый) [datynet & Галина Васюкова], перевод [Куценко]

  • Режиссер: Дрю Браун / Dru Brown
  • В ролях:

    Стив Музакис (Steven Ray), Леон Кэйн (Percival), Джосс МакУильям (Thomas), Мэттью Скалли (Brad), Тодд Леви (Doctor), Николас Купер (Todd), Уорвик Комбер (Paul), Эрин Коннор (Jessica), Крис Бартоломью (Police Officer 1), Рон Келли (Police Chief), Кристиан МакКарти (Thug), Даррел Пламридж (Taxi Driver)

  • Описание:
    Человек, решившийся на самоубийство нанимает безумного убийцу, чтобы он помог ему выполнить свой план, но по какой-то причине он выживает каждый раз, когда решается посягнуть на свою собственную жизнь.
  • Рейтинг:



  • Качество: WEB-DLRip
  • Формат: :AVI
  • Видео кодек: XviD
  • Аудио кодек: AC3
  • Видео: 720x304 (2.35:1), 1738 kbps, 24 fps, 0,331 bpp
  • Аудио №1: Русский 2.0 / 44 kHz / 192 kbps / 16 bit
  • Аудио №2: Английский 2.0 / 48 kHz / 224 kbps / 16 bit
  • Релиз от: GEKADOL

    Код:

    General
    Complete name                            : F:\The.Suicide.Theory.2014.L2.WEB-DLRip.avi
    Format                                   : AVI
    Format/Info                              : Audio Video Interleave
    File size                                : 1.46 GiB
    Duration                                 : 1h 36mn
    Overall bit rate                         : 2 169 Kbps
    Writing application                      : VirtualDubMod 1.5.10.3 | www.virtualdub-fr.org || (build 2550/release)
    Writing library                          : VirtualDubMod build 2550/release

    Video
    ID                                       : 0
    Format                                   : MPEG-4 Visual
    Format profile                           : Advanced Simple@L5
    Format settings, BVOP                    : 1
    Format settings, QPel                    : No
    Format settings, GMC                     : No warppoints
    Format settings, Matrix                  : Custom
    Codec ID                                 : XVID
    Codec ID/Hint                            : XviD
    Duration                                 : 1h 36mn
    Bit rate                                 : 1 739 Kbps
    Width                                    : 720 pixels
    Height                                   : 304 pixels
    Display aspect ratio                     : 2.35:1
    Frame rate                               : 24.000 fps
    Color space                              : YUV
    Chroma subsampling                       : 4:2:0
    Bit depth                                : 8 bits
    Scan type                                : Progressive
    Compression mode                         : Lossy
    Bits/(Pixel*Frame)                       : 0.331
    Stream size                              : 1.17 GiB (80%)
    Writing library                          : XviD 73

    Audio #1
    ID                                       : 1
    Format                                   : AC-3
    Format/Info                              : Audio Coding 3
    Mode extension                           : CM (complete main)
    Codec ID                                 : 2000
    Duration                                 : 1h 36mn
    Bit rate mode                            : Constant
    Bit rate                                 : 192 Kbps
    Channel(s)                               : 2 channels
    Channel positions                        : Front: L R
    Sampling rate                            : 44.1 KHz
    Bit depth                                : 16 bits
    Compression mode                         : Lossy
    Stream size                              : 132 MiB (9%)
    Alignment                                : Split accross interleaves
    Interleave, duration                     : 42 ms (1.00 video frame)
    Interleave, preload duration             : 500 ms

    Audio #2
    ID                                       : 2
    Format                                   : AC-3
    Format/Info                              : Audio Coding 3
    Mode extension                           : CM (complete main)
    Codec ID                                 : 2000
    Duration                                 : 1h 36mn
    Bit rate mode                            : Constant
    Bit rate                                 : 224 Kbps
    Channel(s)                               : 2 channels
    Channel positions                        : Front: L R
    Sampling rate                            : 48.0 KHz
    Bit depth                                : 16 bits
    Compression mode                         : Lossy
    Stream size                              : 154 MiB (10%)
    Alignment                                : Split accross interleaves
    Interleave, duration                     : 42 ms (1.00 video frame)
    Interleave, preload duration             : 500 ms




    Скриншоты:



    pb.wtf



  • Скачать Теория самоубийства через торрент http://i1.imageban.ru/out/2015/07/18/ae35d224cccc739f6a5841b9fa9b6172.jpg Скачать фильм Теория самоубийства через торрент бесплантно в хорошем качестве Описание: Человек, решившийся на самоубийство нанимает безумного убийцу, чтобы он помог ему выполнить свой план, но по какой-то причине он ... 9.5 10 2
    Торрент: Зарегистрирован [2015-07-18 03:37] · скачан: 47 раз
    Статус: T временная
    Размер: 1.46 GB
    Как cкачать? Как скачать Теория самоубийства через торрент | qTorrent

    28-11-2019 20:33  

    Отключить всю рекламу на сайте

      Дорогой пользователь! Огромная просьба, поблагодарите релизера, оцените раздачу и оставьте свои комментарий, если Вы скачали Теория самоубийства через торрент бесплатно! Внесите свою лепту в развитие PiratBit!
      Комментировать посты могут только пользователи прошедшие не сложную регистрацию
      Показать сообщения:    

      Теория самоубийства через торрент
      Скачать бесплатно Теория самоубийства
      Теория самоубийства скачать торрент
      Теория самоубийства смотреть онлайн
      Cкачать фильм Теория самоубийства бесплатно
      Теория самоубийства скачать торрент в хорошем качестве
      Теория самоубийства смотреть онлайн бесплатно в хорошем качестве


      Вы не можете начинать темы
      Вы не можете отвечать на сообщения
      Вы не можете редактировать свои сообщения
      Вы не можете удалять свои сообщения
      Вы не можете голосовать в опросах
      Вы не можете прикреплять файлы к сообщениям
      Вы можете скачивать файлы