Ссылка на приватное зеркало нашего сайта всего за 1$. Внимание количество ограничено!!!

2 сезон

iTunes

1 сезон

1

2 сезон

2 сезон

iTunes

1 сезон

RePack

30

Ultimate

ВАЖНО

ИГРА 18+

pack

RePack

MK11
pack

Забери бонус

RePack

jed

!!Акция!!

Alien_Rage

RePack

fifa19

RePack

Assassins Creed: Odyssey

RePack

NEED FOR SPEED™ PAYBACK

4 сезон

9 сезон

Бесстыжие 9 сезон

Все сериалы

все сериалы на PB.wtf

RePack

FAR CRY 5
  

Второй шанс / En chance til (Сюзанна Бир) [2014, триллер, драма, BDRip 720p] DVO pb.wtf

Второй шанс через торрент pb.wtf

Размер: 5.34 GB | Добавлен: 5 лет 4 мес. назад | Торрент скачан:56 раз
Скачать  

18-07-2015 06:43 Второй шанс Скачать торрент  

Информация о фильме

Название: Второй шанс

Оригинальное название: En chance til

Год выхода: 2014

Жанр: триллер, драма

Выпущено: Дания / Zentropa Entertainments, Danmarks Radio (DR), Det Danske Filminstitut

Продолжительность: 01:34:01

Озвучивание: Любительское (двухголосное) [Lucky Strike]
Субтитры: Russian

Режиссер: Сюзанна Бир

В ролях: Николай Костер-Вальдау, Ульрих Томсен, Николай Ли Каас, Мария Бонневи, Томас Бо Ларсен, Питер Абер, Мэй Андерсен, Бодиль Ёргенсон, Оле Дюпон, Молли Бликст Эгелинд

Описание: История похищения усыновленного ребенка, прежде спасенного полицейским от жестокого наркомана-отца.


Файл

Качество: BDRip 720p
Формат:MKV
Видео кодек: AVC
Аудио кодек: DTS,AC3
Видео: 5445 kb/s, 1280x546, 23,976 fps
Аудио: Russian: AC3, 384 kb/s (2 ch) , 48.0 KHz
Аудио: Dutch: DTS, 1510 kb/s (6 ch), 48.0 KHz

Дополнительно: Сохранены оригинальные чаптеры, как и на Blu-Ray.
Общее
Уникальный идентификатор : 216442015521059307592843902178333427147 (0xA2D53744AB39C2F3B2B5948270DE05CB)
Полное имя : D:\Торенты\En.Chance.Til.2014.L2.BDRip.720p.mkv
Формат : Matroska
Версия формата : Version 4 / Version 2
Размер файла : 5,34 Гбайт
Продолжительность : 1 ч. 42 м.
Общий поток : 7487 Кбит/сек
Название фильма : En.Chance.Til.2014.L2.BDRip.720p.ELEKTRI4KA.uniongang.tv [Carl Gaus]
Дата кодирования : UTC 2015-07-16 05:56:09
Программа кодирования : mkvmerge v6.9.1 ('Blue Panther') 64bit built on Apr 18 2014 18:23:38
Библиотека кодирования : libebml v1.3.0 + libmatroska v1.4.1

Видео
Идентификатор : 1
Формат : AVC
Формат/Информация : Advanced Video Codec
Профиль формата : High@L4.1
Параметр CABAC формата : Да
Параметр ReFrames формата : 9 кадров
Идентификатор кодека : V_MPEG4/ISO/AVC
Продолжительность : 1 ч. 42 м.
Битрейт : 5445 Кбит/сек
Ширина : 1280 пикселей
Высота : 546 пикселей
Соотношение сторон : 2,35:1
Режим частоты кадров : Постоянный
Частота кадров : 24,000 кадра/сек
Цветовое пространство : YUV
Субдискретизация насыщенности : 4:2:0
Битовая глубина : 8 бит
Тип развёртки : Прогрессивная
Бит/(Пиксели*Кадры) : 0.325
Размер потока : 3,88 Гбайт (73%)
Заголовок : En.Chance.Til.2014.L2.BDRip.720p.ELEKTRI4KA.uniongang.tv [Carl Gaus]
Библиотека кодирования : x264 core 146 r2538kMod 121396c
Настройки программы : cabac=1 / ref=9 / deblock=1:-3:-3 / analyse=0x3:0x133 / me=umh / subme=11 / psy=1 / fade_compensate=0.00 / psy_rd=1.00:0.00 / mixed_ref=1 / me_range=32 / chroma_me=1 / trellis=2 / 8x8dct=1 / cqm=0 / deadzone=21,11 / fast_pskip=1 / chroma_qp_offset=-2 / threads=12 / lookahead_threads=3 / sliced_threads=0 / nr=0 / decimate=1 / interlaced=0 / bluray_compat=0 / constrained_intra=0 / fgo=0 / bframes=10 / b_pyramid=2 / b_adapt=2 / b_bias=0 / direct=3 / weightb=1 / open_gop=0 / weightp=2 / keyint=250 / keyint_min=24 / scenecut=40 / intra_refresh=0 / rc=crf / mbtree=0 / crf=14.0000 / qcomp=0.65 / qpmin=0 / qpmax=69 / qpstep=4 / ip_ratio=1.25 / pb_ratio=1.20 / aq=1:0.60
Язык : Danish
Default : Да
Forced : Нет

Аудио #1
Идентификатор : 2
Формат : AC-3
Формат/Информация : Audio Coding 3
Расширение режима : CM (complete main)
Параметр Endianness формата : Big
Идентификатор кодека : A_AC3
Продолжительность : 1 ч. 42 м.
Вид битрейта : Постоянный
Битрейт : 384 Кбит/сек
Каналы : 2 канала
Расположение каналов : Front: L R
Частота : 48,0 КГц
Битовая глубина : 16 бит
Метод сжатия : С потерями
Размер потока : 280 Мбайт (5%)
Заголовок : L2 [Lucky Strike] - En.Chance.Til.2014.L2.BDRip.720p.ELEKTRI4KA.uniongang.tv [Carl Gaus]
Язык : Russian
Default : Да
Forced : Нет

Аудио #2
Идентификатор : 3
Формат : DTS
Формат/Информация : Digital Theater Systems
Режим : 16
Параметр Endianness формата : Big
Идентификатор кодека : A_DTS
Продолжительность : 1 ч. 42 м.
Вид битрейта : Постоянный
Битрейт : 1509 Кбит/сек
Каналы : 6 каналов
Расположение каналов : Front: L C R, Side: L R, LFE
Частота : 48,0 КГц
Битовая глубина : 24 бит
Метод сжатия : С потерями
Размер потока : 1,08 Гбайт (20%)
Заголовок : Original - En.Chance.Til.2014.L2.BDRip.720p.ELEKTRI4KA.uniongang.tv [Carl Gaus]
Язык : Danish
Default : Нет
Forced : Нет

Текст #1
Идентификатор : 4
Формат : UTF-8
Идентификатор кодека : S_TEXT/UTF8
Идентификатор кодека/Информация : UTF-8 Plain Text
Заголовок : En.Chance.Til.2014.L2.BDRip.720p.ELEKTRI4KA.uniongang.tv [Carl Gaus]
Язык : Russian
Default : Да
Forced : Да

Текст #2
Идентификатор : 5
Формат : ASS
Идентификатор кодека : S_TEXT/ASS
Идентификатор кодека/Информация : Advanced Sub Station Alpha
Метод сжатия : Без потерь
Заголовок : En.Chance.Til.2014.L2.BDRip.720p.ELEKTRI4KA.uniongang.tv [Carl Gaus] - ASS
Язык : Russian
Default : Нет
Forced : Нет

Текст #3
Идентификатор : 6
Формат : UTF-8
Идентификатор кодека : S_TEXT/UTF8
Идентификатор кодека/Информация : UTF-8 Plain Text
Заголовок : En.Chance.Til.2014.L2.BDRip.720p.ELEKTRI4KA.uniongang.tv [Carl Gaus]
Язык : Russian
Default : Нет
Forced : Нет

Меню
00:00:00.000 : en:00:00:00.000
00:09:59.917 : en:00:09:59.917
00:19:59.625 : en:00:19:59.625
00:29:59.792 : en:00:29:59.792
00:39:59.667 : en:00:39:59.667
00:49:59.917 : en:00:49:59.917
00:59:59.792 : en:00:59:59.792
01:09:59.958 : en:01:09:59.958
01:19:59.792 : en:01:19:59.792
01:29:59.917 : en:01:29:59.917
01:39:59.792 : en:01:39:59.792

pb.wtf



Скачать Второй шанс через торрент http://i71.fastpic.ru/big/2015/0717/a8/1d6d6bbbe941940d75d00181860261a8.jpg Скачать фильм Второй шанс через торрент бесплантно в хорошем качестве Описание: История похищения усыновленного ребенка, прежде спасенного полицейским от жестокого наркомана-отца. ... 10 10 2
Торрент: Зарегистрирован [2015-07-18 06:43] · скачан: 56 раз
Статус: √ проверено
Размер: 5.34 GB
Как cкачать? Как скачать Второй шанс через торрент | qTorrent

% Раздел Тема Автор DL S | L
Фильмы [HD 720p, 1080p] (Звук Cam, VO, DVO) [ 10.33 GB ] Второй шанс / En chance til [2014 BDRip 1080p by msltel] DVO VO msltel Скачать
2 | 0
Фильмы [HD 720p, 1080p] (Звук Cam, VO, DVO) [ 4.07 GB ] Второй шанс / En chance til [2014 BDRip 720p by msltel] DVO VO msltel Скачать
1 | 0
Фильмы 2014 (Звук TS, Cam, VO, DVO) [ 2.27 GB ] Второй шанс / En chance til [2014 BDRip-AVC by msltel] DVO VO msltel Скачать
1 | 0
T Фильмы [HD 720p, 1080p] (Звук Cam, VO, DVO) [ 7.92 GB ] Второй шанс / En chance til [2014 BDRip 1080p] DVO Ворон Скачать
1 | 0
T Фильмы 2014 (Звук TS, Cam, VO, DVO) [ 1.46 GB ] Второй шанс / En chance til [2014 HDRip] DVO Ворон Скачать
1 | 0

28-11-2019 20:33  

Отключить всю рекламу на сайте

    Дорогой пользователь! Огромная просьба, поблагодарите релизера, оцените раздачу и оставьте свои комментарий, если Вы скачали Второй шанс через торрент бесплатно! Внесите свою лепту в развитие PiratBit!
    Комментировать посты могут только пользователи прошедшие не сложную регистрацию
    Показать сообщения:    

    Второй шанс через торрент
    Скачать бесплатно Второй шанс
    Второй шанс скачать торрент
    Второй шанс смотреть онлайн
    Cкачать фильм Второй шанс бесплатно
    Второй шанс скачать торрент в хорошем качестве
    Второй шанс смотреть онлайн бесплатно в хорошем качестве


    Вы не можете начинать темы
    Вы не можете отвечать на сообщения
    Вы не можете редактировать свои сообщения
    Вы не можете удалять свои сообщения
    Вы не можете голосовать в опросах
    Вы не можете прикреплять файлы к сообщениям
    Вы можете скачивать файлы