Ссылка на приватное зеркало нашего сайта всего за 1$. Внимание количество ограничено!!!

2 сезон

iTunes

1 сезон

1

iTunes

iTunes

iTunes

1 сезон

RePack

30

ИГРА 18+

pack

ВАЖНО

!!Акция!!

Alien_RageХит недели

RePack

MK11
pack

Забери бонус

RePack

jed

!!Акция!!

Alien_Rage

RePack

fifa19

RePack

Assassins Creed: Odyssey

RePack

NEED FOR SPEED™ PAYBACK

4 сезон

9 сезон

Бесстыжие 9 сезон

Все сериалы

все сериалы на PB.wtf

RePack

FAR CRY 5
  

Волчья яма / Wolf Creek (Грег МакЛин) [2005, ужасы, триллер, BDRip 1080p, Дубляж+MVO+DVO+AVO] pb.wtf

Волчья яма через торрент pb.wtf

Размер: 9.68 GB | Добавлен: 5 лет 3 мес. назад | Торрент скачан:77 раз
Скачать  

18-07-2015 13:02 Волчья яма Скачать торрент  


Волчья яма / Wolf Creek
««Как тебя найдут, если никто не знает, что ты пропал?»»

ИНФОРМАЦИЯ:
Год выпуска:2005
Страна: Австралия
Жанр: ужасы, триллер
Продолжительность: 01:39:00
Перевод: Дублированный, профессиональный многоголосый, профессиональный двухголосый, авторский
Субтитры: русские, английские,
Режиссер: Грег МакЛин

В Ролях:


Джон Джэррэт (Mick Taylor), Кассандра Маграт (Liz Hunter), Кести Морасси (Kristy Earl), Нэйтан Филлипс (Ben Mitchell), Гордон Пул (Old Man), Гай О’Доннелл (Car Salesman), Фил Стивенсон (Mechanic), Джофф Ревелл (Petrol Attendant), Энди МакФи (Bazza), Аарон Стернс (Bazza's Mate), Майкл Муди (Bazza's Old Mate), Эндрю Реймер (Flashback Dad)

Описание:
Трое студентов отправляется в путешествие по Австралии, чтобы найти гигантский кратер, образовавшийся в результате падения метеорита. Это место окутано страшными тайнами и мистическими историями. Наши герои и не могли предположить, что участниками очередной такой мистической истории станут они сами...

  • Мировая премьера:17 мая 2005

    ТЕХ.ДАННЫЕ:
    Качество: BDRip 1080p
    Формат: MKV
    Видео кодек: AVC
    Аудио кодек: AC3
    Видео: AVC, 1920x1044 (16:9), 11820 kbps, 24 fps, 0,246 bpp
    Аудио №1: русский / AC3 / 5.1 / 48 kHz / 448 kbps / 16 bit || | Дубляж
    Аудио №2: русский / AC3 / 2.0 / 48 kHz / 192 kbps / 16 bit || | Многоголосый закадровый
    Аудио №3: русский / AC3 / 5.1 / 48 kHz / 512 kbps / 16 bit || | Двухголосый закадровый, П.Гланц и И.Королева
    Аудио №4: русский / AC3 / 5.1 / 48 kHz / 512 kbps / 16 bit || | Одноголосый закадровый, Ю.Немахов
    Аудио №5: английский / AC3 / 5.1 / 48 kHz / 512 kbps / 16 bit


    Код:

    General
    Unique ID                                : 228446644931236594224056254873294855554 (0xABDD3931D7B04D0197A0FD58865FDD82)
    Complete name                            : D:\Торенты\Wolf.Creek.2005.x264.BDRip.1800p.mkv
    Format                                   : Matroska
    Format version                           : Version 4 / Version 2
    File size                                : 9.68 GiB
    Duration                                 : 1h 39mn
    Overall bit rate                         : 14.0 Mbps
    Encoded date                             : UTC 2014-02-17 04:01:19
    Writing application                      : mkvmerge v6.7.0 ('Back to the Ground') 64bit built on Jan  8 2014 15:10:52
    Writing library                          : libebml v1.3.0 + libmatroska v1.4.1

    Video
    ID                                       : 1
    Format                                   : AVC
    Format/Info                              : Advanced Video Codec
    Format profile                           : High@L4.1
    Format settings, CABAC                   : Yes
    Format settings, ReFrames                : 4 frames
    Codec ID                                 : V_MPEG4/ISO/AVC
    Duration                                 : 1h 39mn
    Bit rate                                 : 11.8 Mbps
    Width                                    : 1 920 pixels
    Height                                   : 1 044 pixels
    Display aspect ratio                     : 16:9
    Frame rate                               : 24.000 fps
    Color space                              : YUV
    Chroma subsampling                       : 4:2:0
    Bit depth                                : 8 bits
    Scan type                                : Progressive
    Bits/(Pixel*Frame)                       : 0.246
    Stream size                              : 7.98 GiB (82%)
    Writing library                          : x264 core 138 r2358 9e941d1
    Encoding settings                        : cabac=1 / ref=4 / deblock=1:0:0 / analyse=0x3:0x133 / me=umh / subme=10 / psy=1 / psy_rd=1.00:0.00 / mixed_ref=1 / me_range=32 / chroma_me=1 / trellis=2 / 8x8dct=1 / cqm=0 / deadzone=21,11 / fast_pskip=1 / chroma_qp_offset=-2 / threads=12 / lookahead_threads=2 / sliced_threads=0 / nr=0 / decimate=1 / interlaced=0 / bluray_compat=0 / constrained_intra=0 / bframes=8 / b_pyramid=2 / b_adapt=2 / b_bias=0 / direct=3 / weightb=1 / open_gop=0 / weightp=2 / keyint=240 / keyint_min=24 / scenecut=40 / intra_refresh=0 / rc=2pass / mbtree=0 / bitrate=11820 / ratetol=1.0 / qcomp=0.60 / qpmin=0 / qpmax=69 / qpstep=4 / cplxblur=20.0 / qblur=0.5 / ip_ratio=1.40 / pb_ratio=1.30 / aq=1:1.00
    Language                                 : English
    Default                                  : Yes
    Forced                                   : No

    Audio #1
    ID                                       : 2
    Format                                   : AC-3
    Format/Info                              : Audio Coding 3
    Mode extension                           : CM (complete main)
    Codec ID                                 : A_AC3
    Duration                                 : 1h 39mn
    Bit rate mode                            : Constant
    Bit rate                                 : 448 Kbps
    Channel(s)                               : 6 channels
    Channel positions                        : Front: L C R, Side: L R, LFE
    Sampling rate                            : 48.0 KHz
    Bit depth                                : 16 bits
    Compression mode                         : Lossy
    Stream size                              : 317 MiB (3%)
    Title                                    : Дубляж
    Language                                 : Russian
    Default                                  : Yes
    Forced                                   : No

    Audio #2
    ID                                       : 3
    Format                                   : AC-3
    Format/Info                              : Audio Coding 3
    Mode extension                           : CM (complete main)
    Codec ID                                 : A_AC3
    Duration                                 : 1h 39mn
    Bit rate mode                            : Constant
    Bit rate                                 : 192 Kbps
    Channel(s)                               : 2 channels
    Channel positions                        : Front: L R
    Sampling rate                            : 48.0 KHz
    Bit depth                                : 16 bits
    Compression mode                         : Lossy
    Stream size                              : 136 MiB (1%)
    Title                                    : Многоголосый закадровый
    Language                                 : Russian
    Default                                  : No
    Forced                                   : No

    Audio #3
    ID                                       : 4
    Format                                   : AC-3
    Format/Info                              : Audio Coding 3
    Mode extension                           : CM (complete main)
    Codec ID                                 : A_AC3
    Duration                                 : 1h 39mn
    Bit rate mode                            : Constant
    Bit rate                                 : 512 Kbps
    Channel(s)                               : 6 channels
    Channel positions                        : Front: L C R, Side: L R, LFE
    Sampling rate                            : 48.0 KHz
    Bit depth                                : 16 bits
    Compression mode                         : Lossy
    Stream size                              : 363 MiB (4%)
    Title                                    : Двухголосый закадровый, П.Гланц и И.Королева
    Language                                 : Russian
    Default                                  : No
    Forced                                   : No

    Audio #4
    ID                                       : 5
    Format                                   : AC-3
    Format/Info                              : Audio Coding 3
    Mode extension                           : CM (complete main)
    Codec ID                                 : A_AC3
    Duration                                 : 1h 39mn
    Bit rate mode                            : Constant
    Bit rate                                 : 512 Kbps
    Channel(s)                               : 6 channels
    Channel positions                        : Front: L C R, Side: L R, LFE
    Sampling rate                            : 48.0 KHz
    Bit depth                                : 16 bits
    Compression mode                         : Lossy
    Stream size                              : 363 MiB (4%)
    Title                                    : Одноголосый закадровый, Ю.Немахов
    Language                                 : Russian
    Default                                  : No
    Forced                                   : No

    Audio #5
    ID                                       : 6
    Format                                   : AC-3
    Format/Info                              : Audio Coding 3
    Mode extension                           : CM (complete main)
    Codec ID                                 : A_AC3
    Duration                                 : 1h 39mn
    Bit rate mode                            : Constant
    Bit rate                                 : 512 Kbps
    Channel(s)                               : 6 channels
    Channel positions                        : Front: L C R, Side: L R, LFE
    Sampling rate                            : 48.0 KHz
    Bit depth                                : 16 bits
    Compression mode                         : Lossy
    Stream size                              : 363 MiB (4%)
    Title                                    : Original
    Language                                 : English
    Default                                  : No
    Forced                                   : No

    Text #1
    ID                                       : 7
    Format                                   : UTF-8
    Codec ID                                 : S_TEXT/UTF8
    Codec ID/Info                            : UTF-8 Plain Text
    Language                                 : Russian
    Default                                  : No
    Forced                                   : No

    Text #2
    ID                                       : 8
    Format                                   : UTF-8
    Codec ID                                 : S_TEXT/UTF8
    Codec ID/Info                            : UTF-8 Plain Text
    Language                                 : English
    Default                                  : No
    Forced                                   : No

    Скриншоты:


    © Оформление by Ворон
    pb.wtf



  • Скачать Волчья яма через торрент http://pic.kartinco.top/images/6/ordi9.jpg Скачать фильм Волчья яма через торрент бесплантно в хорошем качестве Описание: Трое студентов отправляется в путешествие по Австралии, чтобы найти гигантский кратер, образовавшийся в результате падения ... 10 10 4
    Info! Золотая раздача, скачанное не засчитывается.
    Торрент: Зарегистрирован [2015-07-18 13:02] · скачан: 77 раз
    Статус: √ проверено
    Размер: 9.68 GB
    Как cкачать? Как скачать Волчья яма через торрент | qTorrent

    % Раздел Тема Автор DL S | L
    Зарубежные сериалы [ 3.57 GB ] Волчья яма / Wolf Creek / Сезон: 1 / Серии 1-6 из 6 [2016 Австралия WEBRip 720p] MVO [BaibaKo] GEKADOL Скачать
    1 | 0
    Зарубежные сериалы [ 14.55 GB ] Волчья яма / Wolf Creek / Сезон: 2 / Серии: 1-6 из 6 [2017 WEB-DL 1080p] DVO [ViruseProject] bober100 Скачать
    1 | 0
    Зарубежные сериалы [ 10.89 GB ] Волчья яма / Wolf Creek / Сезон: 2 / Серии 1-6 из 6 [2016 Австралия WEBRip 720p] MVO [BaibaKo] GEKADOL Скачать
    1 | 0
    Зарубежные сериалы [ 3.94 GB ] Волчья яма / Wolf Creek / Сезон: 2 / Серии 1-6 из 6 [2017 Австралия WEBRip] MVO [BaibaKo] GEKADOL Скачать
    1 | 0
    T Фильмы 2013 (Звук TS, Cam, VO, DVO) [ 1.47 GB ] Волчья яма 2 / Wolf Creek 2 [2013 Австралия WEB-DLRipЛюбительский [den904 DeadSno] Ворон Скачать
    1 | 0
    T Фильмы 2013 (Звук TS, Cam, VO, DVO) [ 2.03 GB ] Волчья яма 2 / Wolf Creek 2 [2013 HDRip Любительский одноголосый] coc900 Скачать
    1 | 0
    Фильмы [HD 720p, 1080p] (Хороший звук DUB, MVO) [ 5.52 GB ] Волчья яма / Wolf Creek [2005 BDRip ] / DUB + DVO + AVO + MVO + Original + SUB AlexKa Скачать
    1 | 0

    28-11-2019 20:33  

    Отключить всю рекламу на сайте

      Дорогой пользователь! Огромная просьба, поблагодарите релизера, оцените раздачу и оставьте свои комментарий, если Вы скачали Волчья яма через торрент бесплатно! Внесите свою лепту в развитие PiratBit!
      Комментировать посты могут только пользователи прошедшие не сложную регистрацию
      Показать сообщения:    

      Волчья яма через торрент
      Скачать бесплатно Волчья яма
      Волчья яма скачать торрент
      Волчья яма смотреть онлайн
      Cкачать фильм Волчья яма бесплатно
      Волчья яма скачать торрент в хорошем качестве
      Волчья яма смотреть онлайн бесплатно в хорошем качестве


      Вы не можете начинать темы
      Вы не можете отвечать на сообщения
      Вы не можете редактировать свои сообщения
      Вы не можете удалять свои сообщения
      Вы не можете голосовать в опросах
      Вы не можете прикреплять файлы к сообщениям
      Вы можете скачивать файлы