Доктор Стрэндж

Лицензия

Добыча

Дубляж

Уэнсдэй

1 сезон

Тор

Дубляж

В эфире

Дубляж

Там, где раки поют

MVO

Властелин колец

1 сезон

Deluxe

pack

Рекомендуем

30

Пиратка

ВАЖНО

ВАЖНО

Ghostwire

Пиратка

jed

RePack

nioh2

RePack

RDR2

RePack

NEED FOR SPEED™ PAYBACK

RePack

скачать торрент

Кинопоиск HD

Острые козырьки 6 сезон

6 сезон

FAR CRY 6

RePack

скачать торрент

Лицензия

скачать торрент

MVO

1

1 сезон

скачать торрент

1 сезон

скачать торрент

Лицензия

  

Джемма Бовери (Другая Бовари) / Gemma Bovery (Анн Фонтен) [2014, драма, мелодрама, комедия, BDRip 1080p] Дубляж Лицензия

Джемма Бовери через торрент pb.wtf

Размер: 7.35 GB | Добавлен: 7 лет 4 мес. назад | Торрент скачан:74 раза
Смотреть онлайн | Скачать   

18-07-2015 14:17 Джемма Бовери Скачать торрент  



Название: Другая Бовари / Джемма Бовери

Оригинальное название: Gemma Bovery

Год выхода: 2014

Выпущено: Франция / Albertine Productions, Ciné@, Gaumont, Cinéfrance 1888, France 2 Cinéma

Продолжительность: 01:39:05

Перевод: Профессиональный (полное дублирование) - Лицензия

Субтитры: Русские (Forced), английские (Forced) - на французскую речь

Жанр: Драма, мелодрама, комедия

Режиссер: Анн Фонтэн

В ролях: Фабрис Лукини, Джемма Артертон, Джейсон Флеминг, Изабель Канделье, Нильс Шнайдер, Мел Райдо, Эльза Зильберштейн, Пип Торренс, Кейси Моттет Кляйн, Эдит Скоб



Описание: Бывший парижский хипстер Мартин становится пекарем в деревне. Все, что осталось от его юношеских амбиций — это живое воображение и страсть к литературе. Однажды, на небольшой ферме по соседству, поселяется английская пара, Джемма и Чарльз Бовери. Их имена и поведение очень напоминают Мартину персонажей из его любимых книг, что приводит его в восторг. Но вот только Джемма не читала классику…







Файл

Качество: BDRip 1080p
Формат:MKV
Видео кодек: AVC
Аудио кодек: AC3
Видео: MPEG4/AVC, 9552 Кбит/сек, 1920х800 (2.40:1), 24.000 кадра/сек
Аудио 1: AC3, 6 каналов, 448 Кбит/сек, 48.0 KHz | Русский
Аудио 2: AC3, 6 каналов, 640 Кбит/сек, 48.0 KHz | Французский

Навигация по главам: Есть
Общее

Уникальный идентификатор : 208425167382148086831473668686012266398 (0x9CCD3A23640893FA8E2AA97B3658B79E)

Полное имя : Gemma Bovery. (2014) BDRip 1080p.mkv

Формат : Matroska

Версия формата : Version 2

Размер файла : 7,35 Гбайт

Продолжительность : 1 ч. 39 м.

Общий поток : 10,6 Мбит/сек

Название фильма : Gemma Bovery. 2014

Дата кодирования : UTC 2015-07-18 11:28:07

Программа кодирования : mkvmerge v5.8.0 ('No Sleep / Pillow') built on Sep 2 2012 15:37:04

Библиотека кодирования : libebml v1.2.3 + libmatroska v1.3.0



Видео

Идентификатор : 1

Формат : AVC

Формат/Информация : Advanced Video Codec

Профиль формата : [email protected]

Параметр CABAC формата : Да

Параметр ReFrames формата : 5 кадров

Идентификатор кодека : V_MPEG4/ISO/AVC

Продолжительность : 1 ч. 39 м.

Битрейт : 9552 Кбит/сек

Ширина : 1920 пикселей

Высота : 800 пикселей

Соотношение сторон : 2,40:1

Режим частоты кадров : Постоянный

Частота кадров : 24,000 кадра/сек

Цветовое пространство : YUV

Субдискретизация насыщенности : 4:2:0

Битовая глубина : 8 бит

Тип развёртки : Прогрессивная

Бит/(Пиксели*Кадры) : 0.259

Размер потока : 6,45 Гбайт (88%)

Заголовок : CiNEFiLE

Библиотека кодирования : x264 core 144 r2525 40bb568

Настройки программы : cabac=1 / ref=5 / deblock=1:0:0 / analyse=0x3:0x133 / me=umh / subme=7 / psy=1 / psy_rd=1.00:0.00 / mixed_ref=1 / me_range=16 / chroma_me=1 / trellis=1 / 8x8dct=1 / cqm=0 / deadzone=21,11 / fast_pskip=0 / chroma_qp_offset=-2 / threads=18 / lookahead_threads=3 / sliced_threads=0 / nr=0 / decimate=1 / interlaced=0 / bluray_compat=0 / constrained_intra=0 / bframes=3 / b_pyramid=2 / b_adapt=1 / b_bias=0 / direct=1 / weightb=1 / open_gop=0 / weightp=2 / keyint=250 / keyint_min=24 / scenecut=40 / intra_refresh=0 / rc_lookahead=40 / rc=2pass / mbtree=1 / bitrate=9552 / ratetol=1.0 / qcomp=0.60 / qpmin=0 / qpmax=69 / qpstep=4 / cplxblur=20.0 / qblur=0.5 / ip_ratio=1.40 / aq=1:1.00

Язык : English

Default : Да

Forced : Нет



Аудио #1

Идентификатор : 2

Формат : AC-3

Формат/Информация : Audio Coding 3

Расширение режима : CM (complete main)

Параметр Endianness формата : Big

Идентификатор кодека : A_AC3

Продолжительность : 1 ч. 39 м.

Вид битрейта : Постоянный

Битрейт : 448 Кбит/сек

Каналы : 6 каналов

Расположение каналов : Front: L C R, Side: L R, LFE

Частота : 48,0 КГц

Битовая глубина : 16 бит

Метод сжатия : С потерями

Размер потока : 317 Мбайт (4%)

Заголовок : Дубляж | License

Язык : Russian

Default : Да

Forced : Нет



Аудио #2

Идентификатор : 3

Формат : AC-3

Формат/Информация : Audio Coding 3

Расширение режима : CM (complete main)

Параметр Endianness формата : Big

Идентификатор кодека : A_AC3

Продолжительность : 1 ч. 39 м.

Вид битрейта : Постоянный

Битрейт : 640 Кбит/сек

Каналы : 6 каналов

Расположение каналов : Front: L C R, Side: L R, LFE

Частота : 48,0 КГц

Битовая глубина : 16 бит

Метод сжатия : С потерями

Размер потока : 453 Мбайт (6%)

Заголовок : Original

Язык : French

Default : Нет

Forced : Нет



Текст #1

Идентификатор : 4

Формат : UTF-8

Идентификатор кодека : S_TEXT/UTF8

Идентификатор кодека/Информация : UTF-8 Plain Text

Заголовок : Forced

Язык : Russian

Default : Нет

Forced : Нет



Текст #2

Идентификатор : 5

Формат : UTF-8

Идентификатор кодека : S_TEXT/UTF8

Идентификатор кодека/Информация : UTF-8 Plain Text

Заголовок : Forced

Язык : English

Default : Нет

Forced : Нет



Меню

00:00:00.000 : en:00:00:00.000

00:09:52.000 : en:00:09:52.000

00:17:03.167 : en:00:17:03.167

00:25:04.292 : en:00:25:04.292

00:33:01.792 : en:00:33:01.792

00:40:51.500 : en:00:40:51.500

00:50:29.875 : en:00:50:29.875

01:00:16.750 : en:01:00:16.750

01:10:47.833 : en:01:10:47.833

01:18:23.250 : en:01:18:23.250

01:25:23.375 : en:01:25:23.375

01:31:39.875 : en:01:31:39.875



Скачать Джемма Бовери через торрент http://i69.fastpic.ru/big/2015/0718/33/7b5caa180f1e145b506240b53260f933.png Скачать, смотреть онлайн Джемма Бовери бесплантно в хорошем качестве Описание: Бывший парижский хипстер Мартин становится пекарем в деревне. Все, что осталось от его юношеских амбиций — это живое воображение ... 10 10 3
Торрент: Зарегистрирован [2015-07-18 14:17] · скачан: 74 раз
Статус: √ проверено
Размер: 7.35 GB
Как cкачать? Как скачать Джемма Бовери через торрент | UTorrent

28-11-2019 20:33  


Отключить вcю реклaмy на сайте, в т.ч. и в плеере онлайн просмотра!

18-07-2015 14:23 Джемма Бовери Скачать торрент  

своеобразный фильм Джемма Артертон



    Дорогой пользователь! Огромная просьба, поблагодарите релизера, оцените раздачу и оставьте свои комментарий, если Вы скачали Джемма Бовери через торрент бесплатно!!
    Комментировать посты могут только пользователи прошедшие не сложную регистрацию
    Показать сообщения:    


    Джемма Бовери через торрент
    Скачать бесплатно Джемма Бовери
    Джемма Бовери скачать торрент
    Джемма Бовери смотреть онлайн
    Cкачать фильм Джемма Бовери бесплатно
    Джемма Бовери скачать торрент в хорошем качестве
    Джемма Бовери смотреть онлайн бесплатно в хорошем качестве
    Вы не можете начинать темы
    Вы не можете отвечать на сообщения
    Вы не можете редактировать свои сообщения
    Вы не можете удалять свои сообщения
    Вы не можете голосовать в опросах
    Вы не можете прикреплять файлы к сообщениям
    Вы можете скачивать файлы
    Джемма Бовери / Gemma Bovery [2014, драма, мелодрама, комедия, BDRip 1080p] Дубляж Лицензия смотреть онлайн, скачать торрент picoco.icu