Ссылка на приватное зеркало нашего сайта всего за 1$. Внимание количество ограничено!!!

2 сезон

iTunes

1 сезон

1

2 сезон

2 сезон

iTunes

1 сезон

RePack

30

Ultimate

ВАЖНО

ИГРА 18+

pack

RePack

MK11
pack

Забери бонус

RePack

jed

!!Акция!!

Alien_Rage

RePack

fifa19

RePack

Assassins Creed: Odyssey

RePack

NEED FOR SPEED™ PAYBACK

4 сезон

9 сезон

Бесстыжие 9 сезон

Все сериалы

все сериалы на PB.wtf

RePack

FAR CRY 5
  

Сражение за тяжёлую воду / Kampen om tungtvannet / Сезон: 1 / Серии 1-6 из 6 (Пер-Олав Соренсен / Per-Olav Sørensen) [2015, Норвегия, драма, военный, история, HDRip-AVC, Авторский (одноголосый) (Д. Есарев) pb.wtf

Сражение за тяжёлую воду через торрент pb.wtf

Размер: 3.41 GB | Добавлен: 5 лет 4 мес. назад | Торрент скачан:191 раз
Скачать  

19-07-2015 02:36 Сражение за тяжёлую воду Скачать торрент  

Сражение за тяжёлую воду / Kampen om tungtvannet


  • Год выпуска: 2015
  • Страна: Норвегия
  • Жанр: драма, военный, история
  • Продолжительность: 00:43:44
  • Перевод: Авторский (одноголосый) (Д. Есарев)

  • Режиссер: Пер-Олав Соренсен / Per-Olav Sørensen
  • В ролях:

    Андреас Дёлер (Kurt Diebner), Роберт Хунгер-Бюлер (Emil Leeb), Марк Беньямин Пух (Major Decker), Кристоф Бах (Werner Heisenberg), Пери Баумейстер (Elisabeth Heisenberg), Эспен Ребол Бьерке (Jomar Brun), Торстейн Бьёрклунд (Arne Kjelstrup), Endre Ellefsen (Hans Storhaug), Оле Кристоффер Эртвог (Birger Strømsheim), Ейрик Эвьен (Kasper Idland), Анна Фрил (Julie Smith), Беньямин Хельстад (Jens-Anton Poulsson)

  • Описание:
    Сериал рассказывает о тревожных днях во времена Второй Мировой Войны. В центре сюжета - создание атомной бомбы в Германии. Нобелевский Лауреат по физике Вернер Гейзенберг должен по приказу верховного командования создать атомную бомбу для нацистов. Ученый узнал, что для ее производства нужна так называемая тяжелая вода, которая массово производится в городе Рьюкан,что в Норвегии. О планах нацистской Германии узнают союзные страны. Они решают отправить свою диверсионную группу в Рьюкан для уничтожения завода по производству тяжелой воды, а также для захвата парома, который ее транспортирует из губернии Телемарк.
  • Рейтинг:



  • Качество: HDRip-AVC
  • Формат: :MKV
  • Видео кодек: AVC
  • Аудио кодек: AC3
  • Видео: 1024x576 (16:9), 1349 kbps, 25 fps, 0,092 bpp
  • Аудио: русский / 5.1 / 48 kHz / 448 kbps / 16 bit |Д. Есарев|
  • Релиз от: GEKADOL

    Код:

    General
    Unique ID                                : 55046102702284354619551316426460279026 (0x29697E66817C71C6D8A20D96520CB0F2)
    Complete name                            : F:\Битва за тяжёлую воду [S01] (2015) HDRIP_AVC_576p\The.Battle.for.Heavy.Water.2015.Ep06.576p.HDRIP_AVC.[-=DoMiNo=-].mkv
    Format                                   : Matroska
    Format version                           : Version 4 / Version 2
    File size                                : 574 MiB
    Duration                                 : 43mn 44s
    Overall bit rate                         : 1 834 Kbps
    Writing application                      : XviD4PSP 7.0.122
    Writing library                          : Lavf56.15.102
    COMMENT                                  : MATROSKA,WEBM > MKV / H264 > X264 CRF 19,0 Custom / DTS > AC3

    Video
    ID                                       : 1
    Format                                   : AVC
    Format/Info                              : Advanced Video Codec
    Format profile                           : High@L4.1
    Format settings, CABAC                   : Yes
    Format settings, ReFrames                : 10 frames
    Codec ID                                 : V_MPEG4/ISO/AVC
    Duration                                 : 43mn 44s
    Bit rate                                 : 1 350 Kbps
    Width                                    : 1 024 pixels
    Height                                   : 576 pixels
    Display aspect ratio                     : 16:9
    Frame rate                               : 25.000 fps
    Color space                              : YUV
    Chroma subsampling                       : 4:2:0
    Bit depth                                : 8 bits
    Scan type                                : Progressive
    Bits/(Pixel*Frame)                       : 0.092
    Stream size                              : 422 MiB (74%)
    Writing library                          : x264 core 146 r2538M 121396c
    Encoding settings                        : cabac=1 / ref=10 / deblock=1:-3:-3 / analyse=0x3:0x133 / me=umh / subme=10 / psy=1 / psy_rd=1,00:0,10 / mixed_ref=1 / me_range=32 / chroma_me=1 / trellis=2 / 8x8dct=1 / cqm=0 / deadzone=21,11 / fast_pskip=0 / chroma_qp_offset=-3 / threads=12 / lookahead_threads=2 / sliced_threads=0 / nr=0 / decimate=1 / interlaced=0 / bluray_compat=0 / constrained_intra=0 / bframes=9 / b_pyramid=2 / b_adapt=2 / b_bias=0 / direct=1 / weightb=1 / open_gop=0 / weightp=2 / keyint=250 / keyint_min=25 / scenecut=40 / intra_refresh=0 / rc=crf / mbtree=0 / crf=19,0 / qcomp=0,60 / qpmin=19 / qpmax=69 / qpstep=4 / ip_ratio=1,40 / pb_ratio=1,30 / aq=1:1,00
    Language                                 : English
    Default                                  : Yes
    Forced                                   : No

    Audio
    ID                                       : 2
    Format                                   : AC-3
    Format/Info                              : Audio Coding 3
    Mode extension                           : CM (complete main)
    Codec ID                                 : A_AC3
    Duration                                 : 43mn 44s
    Bit rate mode                            : Constant
    Bit rate                                 : 448 Kbps
    Channel(s)                               : 6 channels
    Channel positions                        : Front: L C R, Side: L R, LFE
    Sampling rate                            : 48.0 KHz
    Bit depth                                : 16 bits
    Compression mode                         : Lossy
    Delay relative to video                  : 27ms
    Stream size                              : 140 MiB (24%)
    Language                                 : Russian
    Default                                  : Yes
    Forced                                   : No




    Скриншоты:



    pb.wtf



  • Скачать Сражение за тяжёлую воду через торрент http://i2.imageban.ru/out/2015/07/19/2b34587e180ff684b0701d6fc6024b82.jpg Скачать фильм Сражение за тяжёлую воду через торрент бесплантно в хорошем качестве Описание: Сериал рассказывает о тревожных днях во времена Второй Мировой Войны. В центре сюжета - создание атомной бомбы в Германии. ... 9.9 10 13
    Info! Золотая раздача, скачанное не засчитывается.
    Торрент: Зарегистрирован [2015-07-19 02:36] · скачан: 191 раз
    Статус: √ проверено
    Размер: 3.41 GB
    Как cкачать? Как скачать Сражение за тяжёлую воду через торрент | qTorrent

    % Раздел Тема Автор DL S | L
    Зарубежные сериалы [ 19.89 GB ] Сражение за тяжёлую воду / Kampen om tungtvannet / Сезон: 1 / Серии 1-6 из 6 [2015 военный история BDRip 1080p AVO Есарев] Ворон Скачать
    1 | 0

    28-11-2019 20:33  

    Отключить всю рекламу на сайте

    19-07-2015 05:07 Сражение за тяжёлую воду Скачать торрент  

    Немцы конечно в технологиях всех опередили но пластиковые окна на заводе это уже перебор....pb.wtf



    19-07-2015 05:22 Сражение за тяжёлую воду Скачать торрент  

    dimkostuk писал(а):

    Немцы конечно в технологиях всех опередили но пластиковые окна на заводе это уже перебор....

    sarcasticpb.wtf



    19-07-2015 07:11 Сражение за тяжёлую воду Скачать торрент  

    dimkostuk писал(а):

    Немцы конечно в технологиях всех опередили но пластиковые окна на заводе это уже перебор....

    Тот самый, знаменитый трёхрейховский завод пластиковых окон? Установка бесплатно! :dancee:pb.wtf



    19-07-2015 14:24 Сражение за тяжёлую воду Скачать торрент  

    Про пластиковые окна все ясно, а как сама идея и сам сериал? Стоит время тратить?pb.wtf



      Дорогой пользователь! Огромная просьба, поблагодарите релизера, оцените раздачу и оставьте свои комментарий, если Вы скачали Сражение за тяжёлую воду через торрент бесплатно! Внесите свою лепту в развитие PiratBit!
      Комментировать посты могут только пользователи прошедшие не сложную регистрацию
      Показать сообщения:    

      Сражение за тяжёлую воду через торрент
      Скачать бесплатно Сражение за тяжёлую воду
      Сражение за тяжёлую воду скачать торрент
      Сражение за тяжёлую воду смотреть онлайн
      Cкачать фильм Сражение за тяжёлую воду бесплатно
      Сражение за тяжёлую воду скачать торрент в хорошем качестве
      Сражение за тяжёлую воду смотреть онлайн бесплатно в хорошем качестве


      Вы не можете начинать темы
      Вы не можете отвечать на сообщения
      Вы не можете редактировать свои сообщения
      Вы не можете удалять свои сообщения
      Вы не можете голосовать в опросах
      Вы не можете прикреплять файлы к сообщениям
      Вы можете скачивать файлы