Ссылка на приватное зеркало нашего сайта всего за 1$. Внимание количество ограничено!!!

2 сезон

iTunes

1 сезон

1

2 сезон

2 сезон

iTunes

1 сезон

RePack

30

Ultimate

ВАЖНО

ИГРА 18+

pack

RePack

MK11
pack

Забери бонус

RePack

jed

!!Акция!!

Alien_Rage

RePack

fifa19

RePack

Assassins Creed: Odyssey

RePack

NEED FOR SPEED™ PAYBACK

4 сезон

9 сезон

Бесстыжие 9 сезон

Все сериалы

все сериалы на PB.wtf

RePack

FAR CRY 5
  

Дикие лошади / Wild Horses (Роберт Дювалл ) [2015, драма, криминал, HDRip, DVO] pb.wtf

Дикие лошади через торрент pb.wtf

Размер: 1.45 GB | Добавлен: 5 лет 4 мес. назад | Торрент скачан:84 раза
Скачать  

19-07-2015 07:02 Дикие лошади Скачать торрент  


Дикие лошади / Wild Horses


ИНФОРМАЦИЯ:
Год выпуска: 2015
Страна: США
Жанр: драма, криминал
Продолжительность: 01:43:36
Перевод: Любительский (двухголосый закадровый) Sunny-Films
Режиссер: Роберт Дювалл

В Ролях:


Роберт Дювалл (Scott Briggs), Джеймс Франко (Ben Briggs), Джош Хартнетт, Лусиана Педраса, Энджи Сепеда (Maria Gonzales), Джим Пэррак, Адриана Барраса, Darien Willardson (Jimmy Davis), Хоакин Джексон (Ranger Jackson), Кристиан Дженсен (Bar Guy), Джерри Гарсиа, Девон Эбнер

Описание:
Техасские рейнджеры расследуют исчезновение мальчика, произошедшее пятнадцать лет назад. Улики приводят их на ферму, однако нынешний ее владелец отказывается от какого-либо сотрудничества.

  • Мировая премьера:17 марта 2015

    ТЕХ.ДАННЫЕ:
    Качество: HDRip
    Формат: AVI
    Видео кодек: XviD
    Аудио кодек: MP3
    Видео: XviD, 720x304 (2.35:1), 1800 kbps, 23,976 fps, 0,278 bpp
    Аудио: MP3 / 2.0 / 44 kHz / 192 kbps /



    Код:

    General
    Complete name                            : D:\Торенты\Wild.Horses.2015.HDRipX..avi
    Format                                   : AVI
    Format/Info                              : Audio Video Interleave
    File size                                : 1.25 GiB
    Duration                                 : 1h 43mn
    Overall bit rate                         : 1 728 Kbps
    Writing application                      : VirtualDubMod 1.5.10.3 (build 2550/release)
    Writing library                          : VirtualDubMod build 2550/release

    Video
    ID                                       : 0
    Format                                   : MPEG-4 Visual
    Format profile                           : Advanced Simple@L5
    Format settings, BVOP                    : 2
    Format settings, QPel                    : No
    Format settings, GMC                     : No warppoints
    Format settings, Matrix                  : Default (H.263)
    Muxing mode                              : Packed bitstream
    Codec ID                                 : XVID
    Codec ID/Hint                            : XviD
    Duration                                 : 1h 43mn
    Bit rate                                 : 1800 Kbps
    Width                                    : 720 pixels
    Height                                   : 304 pixels
    Display aspect ratio                     : 2.35:1
    Frame rate                               : 23.976 fps
    Color space                              : YUV
    Chroma subsampling                       : 4:2:0
    Bit depth                                : 8 bits
    Scan type                                : Progressive
    Compression mode                         : Lossy
    Bits/(Pixel*Frame)                       : 0.278
    Stream size                              : 1.06 GiB (84%)
    Writing library                          : XviD 66

    Audio
    ID                                       : 1
    Format                                   : MPEG Audio
    Format version                           : Version 1
    Format profile                           : Layer 3
    Codec ID                                 : 55
    Codec ID/Hint                            : MP3
    Duration                                 : 1h 43mn
    Bit rate mode                            : Constant
    Bit rate                                 : 192 Kbps
    Channel(s)                               : 2 channels
    Sampling rate                            : 44.1 KHz
    Compression mode                         : Lossy
    Stream size                              : 142 MiB (11%)
    Alignment                                : Split accross interleaves

    Скриншоты:


    © Оформление by Ворон
    pb.wtf



  • Скачать Дикие лошади через торрент http://pic.kartinco.top/images/6/ordi9.jpg Скачать фильм Дикие лошади через торрент бесплантно в хорошем качестве Описание: Техасские рейнджеры расследуют исчезновение мальчика, произошедшее пятнадцать лет назад. Улики приводят их на ферму, однако ... 8.2 10 5
    Торрент: Зарегистрирован [2015-07-19 07:02] · скачан: 84 раз
    Статус: T временная
    Размер: 1.45 GB
    Как cкачать? Как скачать Дикие лошади через торрент | qTorrent

    % Раздел Тема Автор DL S | L
    T Фильмы 2015 (Звук TS, Cam, VO, DVO) [ 1.25 GB ] Дикие лошади / Wild Horses [2015 HDRip VO] Ворон Скачать
    1 | 0

    28-11-2019 20:33  

    Отключить всю рекламу на сайте

      Дорогой пользователь! Огромная просьба, поблагодарите релизера, оцените раздачу и оставьте свои комментарий, если Вы скачали Дикие лошади через торрент бесплатно! Внесите свою лепту в развитие PiratBit!
      Комментировать посты могут только пользователи прошедшие не сложную регистрацию
      Показать сообщения:    

      Дикие лошади через торрент
      Скачать бесплатно Дикие лошади
      Дикие лошади скачать торрент
      Дикие лошади смотреть онлайн
      Cкачать фильм Дикие лошади бесплатно
      Дикие лошади скачать торрент в хорошем качестве
      Дикие лошади смотреть онлайн бесплатно в хорошем качестве


      Вы не можете начинать темы
      Вы не можете отвечать на сообщения
      Вы не можете редактировать свои сообщения
      Вы не можете удалять свои сообщения
      Вы не можете голосовать в опросах
      Вы не можете прикреплять файлы к сообщениям
      Вы можете скачивать файлы