Ссылка на приватное зеркало нашего сайта всего за 1$. Внимание количество ограничено!!!

2 сезон

iTunes

1 сезон

1

iTunes

iTunes

iTunes

1 сезон

RePack

30

ИГРА 18+

pack

ВАЖНО

!!Акция!!

Alien_RageХит недели

RePack

MK11
pack

Забери бонус

RePack

jed

!!Акция!!

Alien_Rage

RePack

fifa19

RePack

Assassins Creed: Odyssey

RePack

NEED FOR SPEED™ PAYBACK

4 сезон

9 сезон

Бесстыжие 9 сезон

Все сериалы

все сериалы на PB.wtf

RePack

FAR CRY 5
  

Игрушечные солдатики / Toy Soldiers (Дэниел Питри мл.) [1991, боевик, триллер, драма, BDRip 1080p by msltel] 3 x MVO, DVO, AVO pb.wtf

Игрушечные солдатики через торрент pb.wtf

Размер: 10.92 GB | Добавлен: 5 лет 3 мес. назад | Торрент скачан:14 раз
Скачать  

19-07-2015 07:40 Игрушечные солдатики Скачать торрент  

Название: Игрушечные солдатики
Оригинальное название: Toy Soldiers
Год выпуска: 1991
Страна: США
Жанр: боевик, триллер, драма
Продолжительность: 01:52:03
Перевод: профессиональный многоголосый, профессиональный двухголосый, авторский

Режиссёр: Дэниел Питри мл.

В ролях: Шон Эстин, Уил Уитон, Кит Куган, Эндрю Дивофф, Р. Ли Эрми, Мейсон Эдамс, Денхолм Эллиотт, Луис Госсет мл., Джордж Перес, Т. Э. Рассел, Шоун Фелан, Майкл Чэмпион, Трейси Брук Своуп, Макс Мэнвелл, Джо Инскоу, Джерри Лайден, Рене Гатика, Джереми МакЛерран, Джесси Доран, Стэн Келли, Кэрол Шоумэйкер, Адам Бонифант, Марк Ретц, Пол Синкофф, Ричард Трэвис, Жанет Ли Оркутт, Ноул Джонсон, Рафаэль Х. Робледо, Том Триго, Расселл Кристофер Ганьон, Кристофер Нортап, Джо Бэнкс

Описание: Когда учащиеся элитарного колледжа взяты в заложники южноамериканскими террористами, им ничего не остаётся, как вступить в смертельную схватку. Сержант армии встаёт во главе отряда студентов в их отчаянной попытке противостоять террору...



Качество: BDRip 1080p Сравнение с исходником
Формат: MKV
Видео кодек: H.264
Аудио кодек: AC3, DTS
Видео: MPEG-4 AVC, 11.4 Mбит/с, 1920x1040, 23,976 кадра/с
Аудио 1: русский, AC3, 192 kbps, 2 ch, 48 kHz [профессиональный многоголосый, OPT]
Аудио 2: русский, AC3, 192 kbps, 2 ch, 48 kHz [профессиональный многоголосый, SDI MEDIA с канала ТВ 1000]
Аудио 3: русский, AC3, 192 kbps, 2 ch, 48 kHz [профессиональный многоголосый, НОРД ВИДЕО]
Аудио 4: русский, AC3, 192 kbps, 2 ch, 48 kHz [профессиональный двухголосый, HTB+]
Аудио 5: русский, DTS, 768 kbps, 6 ch, 48 kHz [авторский, Вартан Дохалов]
Аудио 6: английский, DTS, 768 kbps, 6 ch, 48 kHz [оригинал]
Субтитры: английские
Общее
Уникальный идентификатор : 185589426482860479669921163055251690764 (0x8B9F392F9871A0CAABC46AF93A31950C)
Полное имя : D:VideoИгрушечные солдатики.1991.BDRip.1080p.mkv
Формат : Matroska
Версия формата : Version 4 / Version 2
Размер файла : 10,9 Гбайт
Продолжительность : 1 ч. 52 м.
Общий поток : 14,0 Мбит/сек
Название фильма : BDRip -- STarankov
Дата кодирования : UTC 2015-07-19 03:34:38
Программа кодирования : mkvmerge v7.9.0 ('Birds') 64bit
Библиотека кодирования : libebml v1.3.1 + libmatroska v1.4.2
_STATISTICS_WRITING_APP : mkvmerge v7.9.0 ('Birds') 64bit
_STATISTICS_WRITING_DATE_UTC : 2015-07-19 03:34:38
_STATISTICS_TAGS : BPS DURATION NUMBER_OF_FRAMES NUMBER_OF_BYTES
DURATION : 01:52:03.723000000
NUMBER_OF_FRAMES : 630349
NUMBER_OF_BYTES : 645477440

Видео
Идентификатор : 1
Формат : AVC
Формат/Информация : Advanced Video Codec
Профиль формата : High@L4.1
Параметр CABAC формата : Да
Параметр ReFrames формата : 4 кадра
Идентификатор кодека : V_MPEG4/ISO/AVC
Продолжительность : 1 ч. 52 м.
Битрейт : 11,4 Мбит/сек
Ширина : 1920 пикселей
Высота : 1040 пикселей
Соотношение сторон : 1,85:1
Режим частоты кадров : Постоянный
Частота кадров : 23,976 кадра/сек
Цветовое пространство : YUV
Субдискретизация насыщенности : 4:2:0
Битовая глубина : 8 бит
Тип развёртки : Прогрессивная
Бит/(Пиксели*Кадры) : 0.237
Размер потока : 8,90 Гбайт (81%)
Библиотека кодирования : x264 core 146 r2538 121396c
Настройки программы : cabac=1 / ref=4 / deblock=1:-1:-1 / analyse=0x3:0x113 / me=umh / subme=10 / psy=1 / psy_rd=1.00:0.15 / mixed_ref=1 / me_range=32 / chroma_me=1 / trellis=2 / 8x8dct=1 / cqm=0 / deadzone=21,11 / fast_pskip=1 / chroma_qp_offset=-3 / threads=6 / lookahead_threads=1 / sliced_threads=0 / nr=0 / decimate=1 / interlaced=0 / bluray_compat=0 / constrained_intra=0 / bframes=8 / b_pyramid=2 / b_adapt=2 / b_bias=0 / direct=1 / weightb=1 / open_gop=0 / weightp=2 / keyint=230 / keyint_min=23 / scenecut=40 / intra_refresh=0 / rc_lookahead=40 / rc=crf / mbtree=0 / crf=19.8 / qcomp=0.60 / qpmin=0 / qpmax=69 / qpstep=4 / vbv_maxrate=40000 / vbv_bufsize=50000 / crf_max=0.0 / nal_hrd=none / filler=0 / ip_ratio=1.40 / pb_ratio=1.30 / aq=1:1.00
Язык : English
Default : Да
Forced : Нет
DURATION : 01:52:03.717000000
NUMBER_OF_FRAMES : 161208
NUMBER_OF_BYTES : 9785752796
_STATISTICS_WRITING_APP : mkvmerge v7.9.0 ('Birds') 64bit
_STATISTICS_WRITING_DATE_UTC : 2015-07-19 03:34:38
_STATISTICS_TAGS : BPS DURATION NUMBER_OF_FRAMES NUMBER_OF_BYTES

Аудио #1
Идентификатор : 2
Формат : AC-3
Формат/Информация : Audio Coding 3
Расширение режима : CM (complete main)
Параметр Endianness формата : Big
Идентификатор кодека : A_AC3
Продолжительность : 1 ч. 52 м.
Вид битрейта : Постоянный
Битрейт : 192 Кбит/сек
Каналы : 2 канала
Расположение каналов : Front: L R
Частота : 48,0 КГц
Битовая глубина : 16 бит
Метод сжатия : С потерями
Размер потока : 154 Мбайт (1%)
Заголовок : MVO (OPT)
Язык : Russian
Default : Да
Forced : Нет

Аудио #2
Идентификатор : 3
Формат : AC-3
Формат/Информация : Audio Coding 3
Расширение режима : CM (complete main)
Параметр Endianness формата : Big
Идентификатор кодека : A_AC3
Продолжительность : 1 ч. 52 м.
Вид битрейта : Постоянный
Битрейт : 192 Кбит/сек
Каналы : 2 канала
Расположение каналов : Front: L R
Частота : 48,0 КГц
Битовая глубина : 16 бит
Метод сжатия : С потерями
Размер потока : 154 Мбайт (1%)
Заголовок : MVO (SDI MEDIA с канала ТВ 1000)
Язык : Russian
Default : Нет
Forced : Нет

Аудио #3
Идентификатор : 4
Формат : AC-3
Формат/Информация : Audio Coding 3
Расширение режима : CM (complete main)
Параметр Endianness формата : Big
Идентификатор кодека : A_AC3
Продолжительность : 1 ч. 52 м.
Вид битрейта : Постоянный
Битрейт : 192 Кбит/сек
Каналы : 2 канала
Расположение каналов : Front: L R
Частота : 48,0 КГц
Битовая глубина : 16 бит
Метод сжатия : С потерями
Размер потока : 154 Мбайт (1%)
Заголовок : MVO (НОРД ВИДЕО)
Язык : Russian
Default : Нет
Forced : Нет

Аудио #4
Идентификатор : 5
Формат : AC-3
Формат/Информация : Audio Coding 3
Расширение режима : CM (complete main)
Параметр Endianness формата : Big
Идентификатор кодека : A_AC3
Продолжительность : 1 ч. 52 м.
Вид битрейта : Постоянный
Битрейт : 192 Кбит/сек
Каналы : 2 канала
Расположение каналов : Front: L R
Частота : 48,0 КГц
Битовая глубина : 16 бит
Метод сжатия : С потерями
Размер потока : 154 Мбайт (1%)
Заголовок : DVO (HTB+)
Язык : Russian
Default : Нет
Forced : Нет

Аудио #5
Идентификатор : 6
Формат : DTS
Формат/Информация : Digital Theater Systems
Режим : 16
Параметр Endianness формата : Big
Идентификатор кодека : A_DTS
Продолжительность : 1 ч. 52 м.
Вид битрейта : Постоянный
Битрейт : 768 Кбит/сек
Каналы : 6 каналов
Расположение каналов : Front: L C R, Side: L R, LFE
Частота : 48,0 КГц
Битовая глубина : 16 бит
Метод сжатия : С потерями
Размер потока : 616 Мбайт (6%)
Заголовок : AVO (Вартан Дохалов)
Язык : Russian
Default : Нет
Forced : Нет

Аудио #6
Идентификатор : 7
Формат : DTS
Формат/Информация : Digital Theater Systems
Режим : 16
Параметр Endianness формата : Big
Идентификатор кодека : A_DTS
Продолжительность : 1 ч. 52 м.
Вид битрейта : Постоянный
Битрейт : 768 Кбит/сек
Каналы : 6 каналов
Расположение каналов : Front: L C R, Side: L R, LFE
Частота : 48,0 КГц
Битовая глубина : 16 бит
Метод сжатия : С потерями
Размер потока : 616 Мбайт (6%)
Заголовок : Original
Язык : English
Default : Нет
Forced : Нет

Текст
Идентификатор : 8
Формат : UTF-8
Идентификатор кодека : S_TEXT/UTF8
Идентификатор кодека/Информация : UTF-8 Plain Text
Заголовок : английский
Язык : English
Default : Нет
Forced : Нет
pb.wtf



Скачать Игрушечные солдатики через торрент http://i71.fastpic.ru/big/2015/0718/68/d679452cfea4784ff22de6f232b3f168.jpg Скачать фильм Игрушечные солдатики через торрент бесплантно в хорошем качестве Описание: Когда учащиеся элитарного колледжа взяты в заложники южноамериканскими террористами, им ничего не остаётся, как вступить в ... 10 10 3
Торрент: Зарегистрирован [2015-07-19 07:40] · скачан: 14 раз
Статус: √ проверено
Размер: 10.92 GB
Как cкачать? Как скачать Игрушечные солдатики через торрент | qTorrent

% Раздел Тема Автор DL S | L
Фильмы [HD 720p, 1080p] (Хороший звук DUB, MVO) [ 5.17 GB ] Игрушечные солдатики / Toy Soldiers [1991 BDRip 720p by msltel] 3 x MVO DVO AVO msltel Скачать
1 | 0
Фильмы до 2000 г. [ 3.54 GB ] Игрушечные солдатики / Toy Soldiers [1991 BDRip AVC by msltel] 3 x MVO DVO AVO msltel Скачать
1 | 0

28-11-2019 20:33  

Отключить всю рекламу на сайте

    Дорогой пользователь! Огромная просьба, поблагодарите релизера, оцените раздачу и оставьте свои комментарий, если Вы скачали Игрушечные солдатики через торрент бесплатно! Внесите свою лепту в развитие PiratBit!
    Комментировать посты могут только пользователи прошедшие не сложную регистрацию
    Показать сообщения:    

    Игрушечные солдатики через торрент
    Скачать бесплатно Игрушечные солдатики
    Игрушечные солдатики скачать торрент
    Игрушечные солдатики смотреть онлайн
    Cкачать фильм Игрушечные солдатики бесплатно
    Игрушечные солдатики скачать торрент в хорошем качестве
    Игрушечные солдатики смотреть онлайн бесплатно в хорошем качестве


    Вы не можете начинать темы
    Вы не можете отвечать на сообщения
    Вы не можете редактировать свои сообщения
    Вы не можете удалять свои сообщения
    Вы не можете голосовать в опросах
    Вы не можете прикреплять файлы к сообщениям
    Вы можете скачивать файлы