2 сезон

iTunes

1 сезон

1

iTunes

iTunes

iTunes

1 сезон

RePack

30

ИГРА 18+

pack

ВАЖНО

!!Акция!!

Alien_RageХит недели

RePack

MK11
pack

Забери бонус

RePack

jed

!!Акция!!

Alien_Rage

RePack

fifa19

RePack

Assassins Creed: Odyssey

RePack

NEED FOR SPEED™ PAYBACK

4 сезон

9 сезон

Бесстыжие 9 сезон

Все сериалы

все сериалы на PB.wtf

RePack

FAR CRY 5
  

Дум (Расширенная версия) / Doom (Unrated Extended Edition) (Анджей Бартковяк / Andrzej Bartkowiak) [2005, Великобритания, Чехия, Германия, США, ужасы, фантастика, боевик, BDRip 1080p от _denis_100] DUB, MVO, 2xDVO, 2xAVO pb.wtf

Дум через торрент pb.wtf

Размер: 7.74 GB | Добавлен: 5 лет 3 мес. назад | Торрент скачан:353 раза
Скачать  

19-07-2015 08:29 Дум Скачать торрент  

Дум (Расширенная версия) / Doom (Unrated Extended Edition)
«Никто не выйдет живым»


Год выпуска: 2005
Страна: Великобритания, Чехия, Германия, США
Жанр: ужасы, фантастика, боевик, триллер
Продолжительность: 01:52:45
Перевод: Дублированный, Профессиональный многоголосый, Профессиональный (двухголосый), Авторский (одноголосый)
Субтитры: русские (forced), русские, английские
Режиссер: Анджей Бартковяк
В ролях: Карл Урбан , Доби Опарей , Розамунд Пайк , Разаак Адоти , Ричард Брэйк , Аль Уивер , Декстер Флетчер , Брайан Стил , Бен Дэниелс , Дуэйн Джонсон , Йао Чин , Роберт Расселл
Описание:
2145 год. После того, как из далёкой научной лаборатории Олдуай был получен сигнал о помощи, на место ― планету Марс ― прибывает отряд космического спецназа и обнаруживает разгромленную станцию. Вскоре выясняется, что на людей здесь охотятся полчища ужасных существ-мутантов...

R - Лицам до 17 лет обязательно присутствие взрослого
Качество: BDRip 1080p
Контейнер (Расширение): MKV
Видео кодек: AVC
Аудио кодек: AC3
Видео: 1920x816, 6386 Кбит/сек, 23,976 кадр/сек, 0,170 Бит/[Пиксели*Кадры]
Аудио №1: русский / AC3 / 5.1 / 48 kHz / 448 kbps / 16 bit |Дублированный|
Аудио №2: русский / AC3 / 5.1 / 48 kHz / 384 kbps / 16 bit |Многоголосый закадровый, Киномания|
Аудио №3: русский / AC3 / 5.1 / 48 kHz / 448 kbps / 16 bit |Двухголосый закадровый, Tycoon|
Аудио №4: русский / AC3 / 5.1 / 48 kHz / 640 kbps / 16 bit |Двухголосый закадровый, П. Гланц и И. Королёва|
Аудио №5: русский / AC3 / 5.1 / 48 kHz / 448 kbps / 16 bit |Авторский, А. Гаврилов|
Аудио №6: русский / AC3 / 5.1 / 48 kHz / 448 kbps / 16 bit |Авторский, Ю. Немахов|
Аудио №7: английский / AC3 / 5.1 / 48 kHz / 640 kbps / 16 bit
Навигация по главам(Чаптеры): естьАвтор рипа: Сообщество:
  • Фильм снят по мотивам серии компьютерных игр «Doom» (1993 - н. в., id Software).
  • Штурмовые винтовки, которыми пользуются морпехи - модифицированная немецкая штурмовая винтовка G36.
  • В фильме планировалось появление какодемона, но он был вырезан из финальной версии.
  • Тодд Холленсхэд, управляющий делами (CEO) id Software, был с самого начала съёмок привлечён к созданию фильма. Он просматривал сценарии и утверждал их.
  • Татуировка на спине Скалы «SEMPER FI» - это стандартное сокращение пехотинцев для латинской фразы, являющейся девизом морпехов США, - Semper fidelis (Всегда верный).
  • В сцене от первого лица играет ремикс классической музыкальной темы Doom.
  • Имена учёных, Доктора Кармака и Доктора Уиллитса, - отсылки на разработчиков из id Software Джона Кармака и Тима Уиллитса.
  • В фильме используется звук открывающейся двери из игры Doom 3.
  • Ролик в титрах использует множество текстур и световых эффектов из Doom 3: коробки с «Х» на боках, бочки, машина со светящимся цилиндром.
  • После того как пехотинцы возвращаются на Землю до Климакса, то когда Демон разговаривает в комнате с Ковчегом, за его спиной на стене можно увидеть нарисованную стрелку вправо с подписью «To Delta Labs»; возможно, это отсылка к лабораториям Дельта из Doom 3.
  • В исходном описании игры «Doom» аббревиатура оружия, из которого в финале стреляет герой Дуэйна Джонсона, расшифровывается как «Big Fucking Gun».
  • Режиссёрская версия фильма имеет хронометраж 113 минут.
  • Морпех, которого играет Карл Урбан, в оригинале носит кличку «Reaper», что значит «Жнец», в то время как его фамилия - «Grimm». Это непереводимая игра слов - grim reaper (мрачный жнец) - английский эвфемизм смерти.
  • Код:

    Format                                   : Matroska
    Format version                           : Version 2
    File size                                : 7.74 GiB
    Duration                                 : 1h 52mn
    Overall bit rate                         : 9 831 Kbps
    Movie name                               : Doom.(2005).BDRip.1080p.[denis100]
    Encoded date                             : UTC 2015-07-19 08:09:14
    Writing application                      : mkvmerge v5.8.0 ('No Sleep / Pillow') built on Sep  2 2012 15:37:04
    Writing library                          : libebml v1.2.3 + libmatroska v1.3.0

    Video
    ID                                       : 1
    Format                                   : AVC
    Format/Info                              : Advanced Video Codec
    Format profile                           : High@L4.1
    Format settings, CABAC                   : Yes
    Format settings, ReFrames                : 5 frames
    Codec ID                                 : V_MPEG4/ISO/AVC
    Duration                                 : 1h 52mn
    Bit rate                                 : 6 386 Kbps
    Width                                    : 1 920 pixels
    Height                                   : 816 pixels
    Display aspect ratio                     : 2.35:1
    Frame rate                               : 23.976 fps
    Color space                              : YUV
    Chroma subsampling                       : 4:2:0
    Bit depth                                : 8 bits
    Scan type                                : Progressive
    Bits/(Pixel*Frame)                       : 0.170
    Stream size                              : 4.87 GiB (63%)
    Title                                    : Doom.(2005).BDRip.1080p.[denis100]
    Writing library                          : x264 core 146 r2538 121396c
    Encoding settings                        : cabac=1 / ref=5 / deblock=1:-3:-3 / analyse=0x3:0x133 / me=umh / subme=11 / psy=1 / psy_rd=1.00:0.10 / mixed_ref=1 / me_range=32 / chroma_me=1 / trellis=2 / 8x8dct=1 / cqm=0 / deadzone=21,11 / fast_pskip=0 / chroma_qp_offset=-3 / threads=6 / lookahead_threads=1 / sliced_threads=0 / nr=0 / decimate=1 / interlaced=0 / bluray_compat=0 / constrained_intra=0 / bframes=6 / b_pyramid=2 / b_adapt=2 / b_bias=0 / direct=3 / weightb=1 / open_gop=0 / weightp=2 / keyint=240 / keyint_min=23 / scenecut=40 / intra_refresh=0 / rc=2pass / mbtree=0 / bitrate=6386 / ratetol=1.0 / qcomp=0.60 / qpmin=0 / qpmax=69 / qpstep=4 / cplxblur=20.0 / qblur=0.5 / ip_ratio=1.40 / pb_ratio=1.30 / aq=1:1.00
    Language                                 : English
    Default                                  : Yes
    Forced                                   : No

    Audio #1
    ID                                       : 2
    Format                                   : AC-3
    Format/Info                              : Audio Coding 3
    Mode extension                           : CM (complete main)
    Codec ID                                 : A_AC3
    Duration                                 : 1h 52mn
    Bit rate mode                            : Constant
    Bit rate                                 : 448 Kbps
    Channel(s)                               : 6 channels
    Channel positions                        : Front: L C R, Side: L R, LFE
    Sampling rate                            : 48.0 KHz
    Bit depth                                : 16 bits
    Compression mode                         : Lossy
    Stream size                              : 361 MiB (5%)
    Title                                    : Дубляж
    Language                                 : Russian
    Default                                  : Yes
    Forced                                   : No

    Audio #2
    ID                                       : 3
    Format                                   : AC-3
    Format/Info                              : Audio Coding 3
    Mode extension                           : CM (complete main)
    Codec ID                                 : A_AC3
    Duration                                 : 1h 52mn
    Bit rate mode                            : Constant
    Bit rate                                 : 384 Kbps
    Channel(s)                               : 6 channels
    Channel positions                        : Front: L C R, Side: L R, LFE
    Sampling rate                            : 48.0 KHz
    Bit depth                                : 16 bits
    Compression mode                         : Lossy
    Stream size                              : 310 MiB (4%)
    Title                                    : Многоголосый закадровый, Киномания
    Language                                 : Russian
    Default                                  : No
    Forced                                   : No

    Audio #3
    ID                                       : 4
    Format                                   : AC-3
    Format/Info                              : Audio Coding 3
    Mode extension                           : CM (complete main)
    Codec ID                                 : A_AC3
    Duration                                 : 1h 52mn
    Bit rate mode                            : Constant
    Bit rate                                 : 448 Kbps
    Channel(s)                               : 6 channels
    Channel positions                        : Front: L C R, Side: L R, LFE
    Sampling rate                            : 48.0 KHz
    Bit depth                                : 16 bits
    Compression mode                         : Lossy
    Stream size                              : 361 MiB (5%)
    Title                                    : Двухголосый закадровый, Tycoon
    Language                                 : Russian
    Default                                  : No
    Forced                                   : No

    Audio #4
    ID                                       : 5
    Format                                   : AC-3
    Format/Info                              : Audio Coding 3
    Mode extension                           : CM (complete main)
    Codec ID                                 : A_AC3
    Duration                                 : 1h 52mn
    Bit rate mode                            : Constant
    Bit rate                                 : 640 Kbps
    Channel(s)                               : 6 channels
    Channel positions                        : Front: L C R, Side: L R, LFE
    Sampling rate                            : 48.0 KHz
    Bit depth                                : 16 bits
    Compression mode                         : Lossy
    Stream size                              : 516 MiB (7%)
    Title                                    : Двухголосый закадровый, П. Гланц и И. Королёва
    Language                                 : Russian
    Default                                  : No
    Forced                                   : No

    Audio #5
    ID                                       : 6
    Format                                   : AC-3
    Format/Info                              : Audio Coding 3
    Mode extension                           : CM (complete main)
    Codec ID                                 : A_AC3
    Duration                                 : 1h 52mn
    Bit rate mode                            : Constant
    Bit rate                                 : 448 Kbps
    Channel(s)                               : 6 channels
    Channel positions                        : Front: L C R, Side: L R, LFE
    Sampling rate                            : 48.0 KHz
    Bit depth                                : 16 bits
    Compression mode                         : Lossy
    Stream size                              : 361 MiB (5%)
    Title                                    : Авторский, А. Гаврилов
    Language                                 : Russian
    Default                                  : No
    Forced                                   : No

    Audio #6
    ID                                       : 7
    Format                                   : AC-3
    Format/Info                              : Audio Coding 3
    Mode extension                           : CM (complete main)
    Codec ID                                 : A_AC3
    Duration                                 : 1h 52mn
    Bit rate mode                            : Constant
    Bit rate                                 : 448 Kbps
    Channel(s)                               : 6 channels
    Channel positions                        : Front: L C R, Side: L R, LFE
    Sampling rate                            : 48.0 KHz
    Bit depth                                : 16 bits
    Compression mode                         : Lossy
    Stream size                              : 361 MiB (5%)
    Title                                    : Авторский, Ю. Немахов
    Language                                 : Russian
    Default                                  : No
    Forced                                   : No

    Audio #7
    ID                                       : 11
    Format                                   : AC-3
    Format/Info                              : Audio Coding 3
    Mode extension                           : CM (complete main)
    Codec ID                                 : A_AC3
    Duration                                 : 1h 52mn
    Bit rate mode                            : Constant
    Bit rate                                 : 640 Kbps
    Channel(s)                               : 6 channels
    Channel positions                        : Front: L C R, Side: L R, LFE
    Sampling rate                            : 48.0 KHz
    Bit depth                                : 16 bits
    Compression mode                         : Lossy
    Stream size                              : 516 MiB (7%)
    Language                                 : English
    Default                                  : No
    Forced                                   : No

    Text #1
    ID                                       : 8
    Format                                   : UTF-8
    Codec ID                                 : S_TEXT/UTF8
    Codec ID/Info                            : UTF-8 Plain Text
    Title                                    : forced
    Language                                 : Russian
    Default                                  : Yes
    Forced                                   : No

    Text #2
    ID                                       : 9
    Format                                   : UTF-8
    Codec ID                                 : S_TEXT/UTF8
    Codec ID/Info                            : UTF-8 Plain Text
    Language                                 : Russian
    Default                                  : No
    Forced                                   : No

    Text #3
    ID                                       : 10
    Format                                   : UTF-8
    Codec ID                                 : S_TEXT/UTF8
    Codec ID/Info                            : UTF-8 Plain Text
    Language                                 : English
    Default                                  : No
    Forced                                   : No

    Menu
    00:00:00.000                             : en:Quarantine Procedures
    00:02:57.468                             : en:Search and Destroy
    00:10:59.325                             : en:Welcome to the Ark
    00:16:14.598                             : en:Going In
    00:21:23.365                             : en:Superhuman
    00:25:33.365                             : en:Contact!
    00:33:45.773                             : en:Something's Weird
    00:38:20.506                             : en:Man Down
    00:44:12.066                             : en:What Is It?
    00:50:57.554                             : en:No Escape
    00:55:32.829                             : en:One of Them
    01:00:14.193                             : en:Advanced Weapons
    01:08:23.182                             : en:Genetic Mutation
    01:13:58.934                             : en:Seeking Evil
    01:17:58.757                             : en:If It Breathes, Kill It
    01:21:45.775                             : en:By Any Means Necessary
    01:27:41.965                             : en:Game On
    01:35:08.327                             : en:Last Man Standing
    01:39:29.380                             : en:Faithful to the Core
    01:43:52.684                             : en:Almost Home [End Titles]

    x264 [info]: frame I:1287 Avg QP:13.54 size:118974
    x264 [info]: frame P:46788 Avg QP:16.47 size: 52839
    x264 [info]: frame B:114117 Avg QP:18.52 size: 24211
    pb.wtf



    Скачать Дум через торрент http://i72.fastpic.ru/big/2015/0719/0c/35daca4e5992967f40a801059fee5e0c.png Скачать фильм Дум через торрент бесплантно в хорошем качестве Описание:2145 год. После того, как из далёкой научной лаборатории Олдуай был получен сигнал о помощи, на место ― планету Марс ― прибывает ... 9.4 10 26
    Info! Золотая раздача, скачанное не засчитывается.
    Торрент: Зарегистрирован [2015-07-19 08:29] · скачан: 353 раз
    Статус: √ проверено
    Размер: 7.74 GB
    Как cкачать? Как скачать Дум через торрент | qTorrent

    28-11-2019 20:33  

    Отключить всю рекламу на сайте

      Дорогой пользователь! Огромная просьба, поблагодарите релизера, оцените раздачу и оставьте свои комментарий, если Вы скачали Дум через торрент бесплатно! Внесите свою лепту в развитие PiratBit!
      Комментировать посты могут только пользователи прошедшие не сложную регистрацию
      Показать сообщения:    

      Дум через торрент
      Скачать бесплатно Дум
      Дум скачать торрент
      Дум смотреть онлайн
      Cкачать фильм Дум бесплатно
      Дум скачать торрент в хорошем качестве
      Дум смотреть онлайн бесплатно в хорошем качестве


      Вы не можете начинать темы
      Вы не можете отвечать на сообщения
      Вы не можете редактировать свои сообщения
      Вы не можете удалять свои сообщения
      Вы не можете голосовать в опросах
      Вы не можете прикреплять файлы к сообщениям
      Вы можете скачивать файлы