Ссылка на приватное зеркало нашего сайта всего за 1$. Внимание количество ограничено!!!

2 сезон

iTunes

1 сезон

1

iTunes

iTunes

iTunes

1 сезон

RePack

30

ИГРА 18+

pack

ВАЖНО

!!Акция!!

Alien_RageХит недели

RePack

MK11
pack

Забери бонус

RePack

jed

!!Акция!!

Alien_Rage

RePack

fifa19

RePack

Assassins Creed: Odyssey

RePack

NEED FOR SPEED™ PAYBACK

4 сезон

9 сезон

Бесстыжие 9 сезон

Все сериалы

все сериалы на PB.wtf

RePack

FAR CRY 5
  

Любовь и другие лекарства / Love and Other Drugs (Эдвард Цвик) [2010, драма, мелодрама, комедия, BDRip 1080p от еnvy / NNNB] DUB pb.wtf

Любовь и другие лекарства через торрент pb.wtf

Раздают: 1 [ 301 KB/s ]
Размер: 7.76 GB | Добавлен: 5 лет 3 мес. назад | Торрент скачан:143 раза
Скачать  

19-07-2015 10:31 Любовь и другие лекарства Скачать торрент  

Информация о фильме

Русское название: Любовь и другие лекарства
Оригинальное название: Love and Other Drugs
Год выхода: 2010
Жанр: драма, мелодрама, комедия
Режиссер: Эдвард Цвик
Выпущено: США
Продолжительность: 01:52:20
Перевод: Дублированный
В ролях: Джейк Джилленхол, Энн Хэтэуэй, Оливер Плэтт, Хэнк Азария, Джош Гад, Гэбриел Махт, Джуди Грир, Джордж Сигал, Джилл Клейбёрг, Кейт Дженнингс Грант и др.


Сюжет фильма

Девушка широких взглядов Мэгги встречает мужчину своей мечты в лице обаятельного продавца виагры, Джейми. Они начинают легкую интрижку, но оказывается, что надвигающаяся трагедия переворачивает их жизни. Но между Мэгги и Джейми существует особая «химия», они находятся под влиянием абсолютного наркотика… по имени любовь.


Файл

Формат: AVC (библиотека кодирования x.264)
Контейнер (Расширение): MKV
Видео кодек: AVC
Аудио кодек:AC3
Качество: BDRip 1080p (исходник Blu-ray Disc Remux)
Видео: 1920x1040, 8990 Кбит/сек, 23,976 кадр/сек, AVC, x264, High@L4.1, 1.85:1, 0.188 Бит/[Пиксели*Кадры]
Аудио 1: AC-3, 448 Кбит/сек, 6 канала(ов), 48,0 КГц - Дублированный / Русский
Аудио 2: AC-3, 448 Кбит/сек, 6 канала(ов), 48,0 КГц - Оригинал / Английский
Субтитры: Русские | Полные, Английские | Полные
Форсированные субтитры: Русские
Чаптеры (Главы): Есть









Автор Рипа: Сообщество:


Код:

Format                      : Matroska
Format version              : Version 2
File size                   : 7.76 GiB
Duration                    : 1h 52mn
Overall bit rate            : 9 890 Kbps
Movie name                  : Любовь и другие лекарства.(2010).BDRip.1080p.[envy]
Encoded date                : UTC 2015-07-19 08:20:38
Writing application         : mkvmerge v5.8.0 ('No Sleep / Pillow') built on Sep  2 2012 15:37:04
Writing library             : libebml v1.2.3 + libmatroska v1.3.0

Video
ID                          : 1
Format                      : AVC
Format/Info                 : Advanced Video Codec
Format profile              : High@L4.1
Format settings, CABAC      : Yes
Format settings, ReFrames   : 4 frames
Codec ID                    : V_MPEG4/ISO/AVC
Duration                    : 1h 52mn
Bit rate                    : 8 990 Kbps
Width                       : 1 920 pixels
Height                      : 1 040 pixels
Display aspect ratio        : 1.85:1
Frame rate mode             : Constant
Frame rate                  : 23.976 fps
Color space                 : YUV
Chroma subsampling          : 4:2:0
Bit depth                   : 8 bits
Scan type                   : Progressive
Bits/(Pixel*Frame)          : 0.188
Stream size                 : 6.90 GiB (89%)
Title                       : Любовь и другие лекарства.(2010).BDRip.1080p.[envy]
Writing library             : x264 core 146 r2538 121396c
Encoding settings           : cabac=1 / ref=4 / deblock=1:-3:-3 / analyse=0x3:0x133 / me=umh / subme=11 / psy=1 / psy_rd=1.00:0.00 / mixed_ref=1 / me_range=48 / chroma_me=1 / trellis=2 / 8x8dct=1 / cqm=0 / deadzone=21,11 / fast_pskip=0 / chroma_qp_offset=-2 / threads=12 / lookahead_threads=1 / sliced_threads=0 / nr=0 / decimate=1 / interlaced=0 / bluray_compat=0 / constrained_intra=0 / bframes=6 / b_pyramid=2 / b_adapt=2 / b_bias=0 / direct=3 / weightb=1 / open_gop=0 / weightp=2 / keyint=240 / keyint_min=23 / scenecut=40 / intra_refresh=0 / rc=2pass / mbtree=0 / bitrate=8990 / ratetol=2.0 / qcomp=0.60 / qpmin=0 / qpmax=69 / qpstep=4 / cplxblur=20.0 / qblur=0.5 / ip_ratio=1.40 / pb_ratio=1.30 / aq=2:0.70
Language                    : English
Default                     : Yes
Forced                      : No

Audio #1
ID                          : 2
Format                      : AC-3
Format/Info                 : Audio Coding 3
Mode extension              : CM (complete main)
Format settings, Endianness : Big
Codec ID                    : A_AC3
Duration                    : 1h 52mn
Bit rate mode               : Constant
Bit rate                    : 448 Kbps
Channel(s)                  : 6 channels
Channel positions           : Front: L C R, Side: L R, LFE
Sampling rate               : 48.0 KHz
Compression mode            : Lossy
Stream size                 : 360 MiB (5%)
Title                       : Dub
Language                    : Russian
Default                     : Yes
Forced                      : No

Audio #2
ID                          : 3
Format                      : AC-3
Format/Info                 : Audio Coding 3
Mode extension              : CM (complete main)
Format settings, Endianness : Big
Codec ID                    : A_AC3
Duration                    : 1h 52mn
Bit rate mode               : Constant
Bit rate                    : 448 Kbps
Channel(s)                  : 6 channels
Channel positions           : Front: L C R, Side: L R, LFE
Sampling rate               : 48.0 KHz
Compression mode            : Lossy
Stream size                 : 360 MiB (5%)
Title                       : Eng
Language                    : English
Default                     : No
Forced                      : No

Text #1
ID                          : 4
Format                      : UTF-8
Codec ID                    : S_TEXT/UTF8
Codec ID/Info               : UTF-8 Plain Text
Title                       : Rus forced
Language                    : Russian
Default                     : Yes
Forced                      : Yes

Text #2
ID                          : 5
Format                      : UTF-8
Codec ID                    : S_TEXT/UTF8
Codec ID/Info               : UTF-8 Plain Text
Title                       : Rus full
Language                    : Russian
Default                     : No
Forced                      : No

Text #3
ID                          : 6
Format                      : UTF-8
Codec ID                    : S_TEXT/UTF8
Codec ID/Info               : UTF-8 Plain Text
Title                       : Eng full
Language                    : English
Default                     : No
Forced                      : No

Menu
00:00:00.000                : en:1
00:03:52.190                : en:2
00:07:15.309                : en:3
00:11:37.321                : en:4
00:14:13.602                : en:5
00:18:08.128                : en:6
00:21:50.767                : en:7
00:25:02.125                : en:8
00:31:01.943                : en:9
00:36:55.379                : en:10
00:44:51.772                : en:11
00:47:20.170                : en:12
00:50:01.081                : en:13
00:51:43.767                : en:14
00:55:11.474                : en:15
00:59:36.155                : en:16
01:03:21.088                : en:17
01:06:53.259                : en:18
01:08:42.326                : en:19
01:11:24.655                : en:20
01:14:52.488                : en:21
01:20:10.722                : en:22
01:26:08.830                : en:23
01:28:05.279                : en:24
01:34:53.270                : en:25
01:38:38.912                : en:26
01:43:10.309                : en:27
01:47:44.457                : en:28


Самые распространенные форматы изображения:
pb.wtf



Скачать Любовь и другие лекарства через торрент http://www.firepic.org/6/images/2015-07/19/6xwsacp29jpa.png Скачать фильм Любовь и другие лекарства через торрент бесплантно в хорошем качестве В ролях: Джейк Джилленхол, Энн Хэтэуэй, Оливер Плэтт, Хэнк Азария, Джош Гад, Гэбриел Махт, Джуди Грир, Джордж Сигал, Джилл Клейбёрг, Кейт ... 7 10 3
Info! Золотая раздача, скачанное не засчитывается.
Торрент: Зарегистрирован [2015-07-19 10:31] · скачан: 143 раз
Статус: √ проверено
Размер: 7.76 GB
Как cкачать? Как скачать Любовь и другие лекарства через торрент | qTorrent

% Раздел Тема Автор DL S | L
Фильмы [HD 720p, 1080p] (Хороший звук DUB, MVO) [ 17.64 GB ] Любовь и другие лекарства / Love and Other Drugs [2010 BDRip 1080p by msltel] DUB msltel Скачать
1 | 0
Фильмы [HD 720p, 1080p] (Хороший звук DUB, MVO) [ 5.89 GB ] Любовь и другие лекарства / Love and Other Drugs [2010 BDRip 720p by msltel] DUB msltel Скачать
1 | 0

28-11-2019 20:33  

Отключить всю рекламу на сайте

    Дорогой пользователь! Огромная просьба, поблагодарите релизера, оцените раздачу и оставьте свои комментарий, если Вы скачали Любовь и другие лекарства через торрент бесплатно! Внесите свою лепту в развитие PiratBit!
    Комментировать посты могут только пользователи прошедшие не сложную регистрацию
    Показать сообщения:    

    Любовь и другие лекарства через торрент
    Скачать бесплатно Любовь и другие лекарства
    Любовь и другие лекарства скачать торрент
    Любовь и другие лекарства смотреть онлайн
    Cкачать фильм Любовь и другие лекарства бесплатно
    Любовь и другие лекарства скачать торрент в хорошем качестве
    Любовь и другие лекарства смотреть онлайн бесплатно в хорошем качестве


    Вы не можете начинать темы
    Вы не можете отвечать на сообщения
    Вы не можете редактировать свои сообщения
    Вы не можете удалять свои сообщения
    Вы не можете голосовать в опросах
    Вы не можете прикреплять файлы к сообщениям
    Вы можете скачивать файлы