Ссылка на приватное зеркало всего за 1$. Внимание количество ограничено!!!

iTunes

iTunes

iTunes

1

iTunes

iTunes

iTunes

WEBRip

iTunes

30
pack

$ от Little Big

ВАЖНО

!!Акция!!

Alien_RageХит недели

RePack

Resident Evil 21

ИГРА 18+

pack

RePack

jed

!!Акция!!

Alien_Rage

RePack

fifa19

RePack

Assassins Creed: Odyssey

RePack

NEED FOR SPEED™ PAYBACK

4 сезон

9 сезон

Бесстыжие 9 сезон

Все сериалы

все сериалы на PB.wtf

RePack

FAR CRY 5
  

7 дней в аду / 7 Days in Hell (Джейк Зиманский) [2015, комедия, спорт, HDTVRip, Любительский (многоголосый) [GladiolusTV] pb.wtf

7 дней в аду через торрент pb.wtf

Размер: 715 MB | Добавлен: 5 лет назад | Торрент скачан:349 раз
Скачать  

19-07-2015 10:50 7 дней в аду Скачать торрент  


7 дней в аду / 7 Days in Hell
««The epic battle for epicness»»

ИНФОРМАЦИЯ:
Год выпуска:2015
Страна: США
Жанр: комедия, спорт
Продолжительность: 00:41:56
Перевод: Любительский (многоголосый) [GladiolusTV]
Режиссер: Джейк Зиманский

В Ролях:


Энди Сэмберг (Aaron Williams), Кит Харингтон (Charles Poole), Карен Гиллан (Lily), Майкл Шин (TV Host), Мэри Стинберген (Charles' Mother), Лина Данэм (Jordache Executive), Уилл Форте (Tennis Historian), Серена Уильямс (Serena Williams), Хоуи Мэндел, Фред Армисен (Tennis Historian), Джун Скуиб (Queen Elizabeth), Джон МакИнрой (John McEnroe)

Описание:
Вымышленная история о соперничестве между двумя теннисистами, которые сразились в 2004 году в матче, который длился семь дней.

  • Мировая премьера:13 марта 2015

    ТЕХ.ДАННЫЕ:
    Качество: HDTVRip
    Формат: AVI
    Видео кодек: xvid
    Аудио кодек: AC3
    Видео: xvid, 720x400 (16:9), 1924 kbps, 23,976 fps, 0,279 bpp
    Аудио: AC3 / 5.1 / 48 kHz / 448 kbps / 16 bit


    Код:

    General
    Complete name                            : D:\Торенты\7.Dney.Y.4Du.2015.L.HDTVRip.avi
    Format                                   : AVI
    Format/Info                              : Audio Video Interleave
    File size                                : 715 MiB
    Duration                                 : 41mn 56s
    Overall bit rate                         : 2 382 Kbps
    Writing application                      : VirtualDubMod 1.5.10.2 (build 2540/release)
    Writing library                          : VirtualDubMod build 2540/release

    Video
    ID                                       : 0
    Format                                   : xvid
    Codec ID                                 : xvid
    Duration                                 : 41mn 56s
    Bit rate                                 : 1 925 Kbps
    Width                                    : 720 pixels
    Height                                   : 400 pixels
    Display aspect ratio                     : 16:9
    Frame rate                               : 23.976 fps
    Bits/(Pixel*Frame)                       : 0.279
    Stream size                              : 577 MiB (81%)

    Audio
    ID                                       : 1
    Format                                   : AC-3
    Format/Info                              : Audio Coding 3
    Mode extension                           : CM (complete main)
    Codec ID                                 : 2000
    Duration                                 : 41mn 56s
    Bit rate mode                            : Constant
    Bit rate                                 : 448 Kbps
    Channel(s)                               : 6 channels
    Channel positions                        : Front: L C R, Side: L R, LFE
    Sampling rate                            : 48.0 KHz
    Bit depth                                : 16 bits
    Compression mode                         : Lossy
    Stream size                              : 134 MiB (19%)
    Alignment                                : Split accross interleaves
    Interleave, duration                     : 42 ms (1.00 video frame)
    Interleave, preload duration             : 500 ms

    Скриншоты:


    © Оформление by Ворон
    pb.wtf



  • Скачать 7 дней в аду через торрент http://pic.kartinco.top/images/6/ordi9.jpg Скачать фильм 7 дней в аду через торрент бесплантно в хорошем качестве Описание: Вымышленная история о соперничестве между двумя теннисистами, которые сразились в 2004 году в матче, который длился семь дней. ... 8.3 10 12
    Торрент: Зарегистрирован [2015-07-19 10:50] · скачан: 349 раз
    Статус: T временная
    Размер: 715 MB
    Как cкачать? Как скачать 7 дней в аду через торрент | qTorrent

    % Раздел Тема Автор DL S | L
    T Фильмы (WEB-DL 720p, 1080p) [ 1.71 GB ] 7 дней в аду / 7 Days in Hell [2015 HDTVRip 720p Любительский [GladiolusTV] Ворон Скачать
    1 | 0

    28-11-2019 20:33  

    Отключить всю рекламу на сайте

    19-07-2015 23:22 7 дней в аду Скачать торрент  

    Гомно неописуемое!pb.wtf



    20-07-2015 07:53 7 дней в аду Скачать торрент  

    ПОЛНАЯ. :film: nopb.wtf



    20-07-2015 19:25 7 дней в аду Скачать торрент  

    Если убрать все предрассудки и осуждения, фильм классный как сама игра теннис pb.wtf



      Дорогой пользователь! Огромная просьба, поблагодарите релизера, оцените раздачу и оставьте свои комментарий, если Вы скачали 7 дней в аду через торрент бесплатно! Внесите свою лепту в развитие PiratBit!
      Комментировать посты могут только пользователи прошедшие не сложную регистрацию
      Показать сообщения:    

      7 дней в аду через торрент
      Скачать бесплатно 7 дней в аду
      7 дней в аду скачать торрент
      7 дней в аду смотреть онлайн
      Cкачать фильм 7 дней в аду бесплатно
      7 дней в аду скачать торрент в хорошем качестве
      7 дней в аду смотреть онлайн бесплатно в хорошем качестве


      Вы не можете начинать темы
      Вы не можете отвечать на сообщения
      Вы не можете редактировать свои сообщения
      Вы не можете удалять свои сообщения
      Вы не можете голосовать в опросах
      Вы не можете прикреплять файлы к сообщениям
      Вы можете скачивать файлы