Доктор Стрэндж

Лицензия

Добыча

Дубляж

Уэнсдэй

1 сезон

Тор

Дубляж

В эфире

Дубляж

Там, где раки поют

MVO

Властелин колец

1 сезон

Deluxe

pack

Рекомендуем

30

Пиратка

ВАЖНО

ВАЖНО

Ghostwire

Пиратка

jed

RePack

nioh2

RePack

RDR2

RePack

NEED FOR SPEED™ PAYBACK

RePack

скачать торрент

Кинопоиск HD

Острые козырьки 6 сезон

6 сезон

FAR CRY 6

RePack

скачать торрент

Лицензия

скачать торрент

MVO

1

1 сезон

скачать торрент

1 сезон

скачать торрент

Лицензия

  

Несломленный (Анджелина Джоли) [2014, драма, военный, биография, BDRip 720p от potroks] Дубляж Лицензия

Несломленный через торрент pb.wtf

Размер: 4.02 GB | Добавлен: 7 лет 4 мес. назад | Торрент скачан:354 раза
Смотреть онлайн | Скачать   

20-07-2015 08:40 Несломленный Скачать торрент  

Несломленный / Unbroken
Год выпуска: 2014
Страна: США / Legendary Pictures, 3 Arts Entertainment, Jolie Pas
Жанр: драма, военный, биография, спорт
Продолжительность: 02:17:21
Перевод: Дубляж [BD CEE]
Субтитры: русские (форс.), русские (Blu-ray), английские, английские (SDH)
Навигация по главам: есть
Режиссер: Анджелина Джоли / Angelina Jolie
В ролях:

Джек О’Коннелл (Louis Zamperini), Донал Глисон (Phil), Мияви (Watanabe), Гаррет Хедлунд (Fitzgerald), Финн Уиттрок (Mac), Джай Кортни (Cup), Джон Магаро (Tinker), Люк Тредэвэй (Miller), Алекс Расселл (Older Pete), Джон Д’Лео (Young Pete), Винченцо Амато (Anthony), Росс Андерсон (Blackie)
Описание: Фильм рассказывает реальную историю американца-легкоатлета Луи Замперини, принявшего участие в Олимпийских играх 1936 года в Берлине. Он не одержал победы в финальном забеге, но снискал расположение Гитлера, который пригласил его к себе в ложу. Предполагалось, что Замперини примет участие и в следующих Олимпийских играх, но из-за начала Второй мировой войны он был вынужден отправиться на фронт. Его самолет потерпел крушение над Тихим океаном, после чего Замперини вместе с двумя сослуживцами провёл 47 дней в дрейфе на плоту, и попал в плен к японцам, где подвергся издевательствам и пыткам. Домой он вернулся уже лишь после окончания войны.

Качество: BDRip 720p
Формат: MKV
Видео кодек: AVC
Аудио кодек: AC3
Видео: AVC, 1280x534 (2.40:1), 3292 kbps, 23,976 fps, 0,201 bit/pixel
Аудио №1: AC3 / 5.1 / 48 kHz / 448 kbps / 16 bit | RUS
Аудио №2: AC3 / 5.1 / 48 kHz / 448 kbps / 16 bit | ENG
Релиз группы:
Автор рипа: potroks

Код:

General
Unique ID                                : 224185720937720776377989450312336899141 (0xA8A8996C1AD9FE61BF87E07D65017C45)
Complete name                            : N:\Военный\Neslomlennyi.2014.DUAL.BDRip.720p.-HELLYWOOD.mkv
Format                                   : Matroska
Format version                           : Version 4 / Version 2
File size                                : 4.02 GiB
Duration                                 : 2h 17mn
Overall bit rate                         : 4 188 Kbps
Movie name                               : Unbroken (2014) - HELLYWOOD
Encoded date                             : UTC 2010-02-22 21:41:31
Writing application                      : mkvmerge v5.8.0 ('No Sleep / Pillow') built on Sep 30 2012 10:57:14
Writing library                          : libebml v1.3.0 + libmatroska v1.4.0

Video
ID                                       : 1
Format                                   : AVC
Format/Info                              : Advanced Video Codec
Format profile                           : [email protected]
Format settings, CABAC                   : Yes
Format settings, ReFrames                : 9 frames
Codec ID                                 : V_MPEG4/ISO/AVC
Duration                                 : 2h 17mn
Bit rate                                 : 3 292 Kbps
Width                                    : 1 280 pixels
Height                                   : 534 pixels
Display aspect ratio                     : 2.40:1
Frame rate                               : 23.976 fps
Color space                              : YUV
Chroma subsampling                       : 4:2:0
Bit depth                                : 8 bits
Scan type                                : Progressive
Bits/(Pixel*Frame)                       : 0.201
Stream size                              : 3.08 GiB (77%)
Title                                    : potroks
Writing library                          : x264 core 146 r2538 121396c
Encoding settings                        : cabac=1 / ref=9 / deblock=1:-3:-3 / analyse=0x3:0x113 / me=umh / subme=11 / psy=1 / psy_rd=1.01:0.09 / mixed_ref=1 / me_range=32 / chroma_me=1 / trellis=2 / 8x8dct=1 / cqm=0 / deadzone=21,11 / fast_pskip=0 / chroma_qp_offset=-3 / threads=12 / lookahead_threads=2 / sliced_threads=0 / nr=0 / decimate=0 / interlaced=0 / bluray_compat=0 / constrained_intra=0 / bframes=11 / b_pyramid=2 / b_adapt=2 / b_bias=0 / direct=3 / weightb=1 / open_gop=0 / weightp=2 / keyint=250 / keyint_min=25 / scenecut=40 / intra_refresh=0 / rc_lookahead=60 / rc=2pass / mbtree=0 / bitrate=3292 / ratetol=1.0 / qcomp=0.72 / qpmin=0 / qpmax=69 / qpstep=4 / cplxblur=20.0 / qblur=0.5 / vbv_maxrate=14000 / vbv_bufsize=14000 / nal_hrd=none / filler=0 / ip_ratio=1.35 / pb_ratio=1.25 / aq=1:0.70
Language                                 : English
Default                                  : Yes
Forced                                   : No

Audio #1
ID                                       : 2
Format                                   : AC-3
Format/Info                              : Audio Coding 3
Mode extension                           : CM (complete main)
Codec ID                                 : A_AC3
Duration                                 : 2h 17mn
Bit rate mode                            : Constant
Bit rate                                 : 448 Kbps
Channel(s)                               : 6 channels
Channel positions                        : Front: L C R, Side: L R, LFE
Sampling rate                            : 48.0 KHz
Bit depth                                : 16 bits
Compression mode                         : Lossy
Stream size                              : 440 MiB (11%)
Title                                    : Дубляж | DD 5.1 @ 448 kbps - Blu-Ray EUR
Language                                 : Russian
Default                                  : Yes
Forced                                   : No

Audio #2
ID                                       : 3
Format                                   : AC-3
Format/Info                              : Audio Coding 3
Mode extension                           : CM (complete main)
Codec ID                                 : A_AC3
Duration                                 : 2h 17mn
Bit rate mode                            : Constant
Bit rate                                 : 448 Kbps
Channel(s)                               : 6 channels
Channel positions                        : Front: L C R, Side: L R, LFE
Sampling rate                            : 48.0 KHz
Bit depth                                : 16 bits
Compression mode                         : Lossy
Stream size                              : 440 MiB (11%)
Title                                    : Original | DD 5.1 @ 448 kbps
Language                                 : English
Default                                  : No
Forced                                   : No

Text #1
ID                                       : 4
Format                                   : UTF-8
Codec ID                                 : S_TEXT/UTF8
Codec ID/Info                            : UTF-8 Plain Text
Title                                    : форс.
Language                                 : Russian
Default                                  : Yes
Forced                                   : No

Text #2
ID                                       : 5
Format                                   : UTF-8
Codec ID                                 : S_TEXT/UTF8
Codec ID/Info                            : UTF-8 Plain Text
Title                                    : Blu-ray EUR
Language                                 : Russian
Default                                  : No
Forced                                   : No

Text #3
ID                                       : 6
Format                                   : UTF-8
Codec ID                                 : S_TEXT/UTF8
Codec ID/Info                            : UTF-8 Plain Text
Language                                 : English
Default                                  : No
Forced                                   : No

Text #4
ID                                       : 7
Format                                   : UTF-8
Codec ID                                 : S_TEXT/UTF8
Codec ID/Info                            : UTF-8 Plain Text
Title                                    : SDH
Language                                 : English
Default                                  : No
Forced                                   : No

Menu
00:00:00.000                             : en:00:00:00.000
00:08:21.042                             : en:00:08:21.042
00:13:23.803                             : en:00:13:23.803
00:20:05.371                             : en:00:20:05.371
00:27:16.969                             : en:00:27:16.969
00:31:41.066                             : en:00:31:41.066
00:37:22.657                             : en:00:37:22.657
00:44:47.143                             : en:00:44:47.143
00:49:56.952                             : en:00:49:56.952
00:59:48.585                             : en:00:59:48.585
01:10:16.295                             : en:01:10:16.295
01:17:03.911                             : en:01:17:03.911
01:21:50.989                             : en:01:21:50.989
01:28:27.677                             : en:01:28:27.677
01:32:41.514                             : en:01:32:41.514
01:38:30.446                             : en:01:38:30.446
01:44:09.994                             : en:01:44:09.994
01:53:10.617                             : en:01:53:10.617
02:01:39.167                             : en:02:01:39.167
02:11:38.349                             : en:02:11:38.349




Скачать Несломленный через торрент http://i70.fastpic.ru/big/2015/0720/1a/92536998f3fa20eb21b6cfb2231ad91a.png Скачать, смотреть онлайн Несломленный бесплантно в хорошем качестве Описание: Фильм рассказывает реальную историю американца-легкоатлета Луи Замперини, принявшего участие в Олимпийских играх 1936 года в ... 9.5 10 15
Info! Золотая раздача, скачанное не засчитывается.
Торрент: Зарегистрирован [2015-07-20 08:40] · скачан: 354 раз
Статус: √ проверено
Размер: 4.02 GB
Как cкачать? Как скачать Несломленный через торрент | UTorrent

28-11-2019 20:33  


Отключить вcю реклaмy на сайте, в т.ч. и в плеере онлайн просмотра!

20-07-2015 10:05 Несломленный Скачать торрент  

Спасибо, норм фильм!



20-07-2015 10:50 Несломленный Скачать торрент  

WaD1m писал(а):

Спасибо, норм фильм!

Спасибо, норм комментарий (пи си как всегда sarcastic )



    Дорогой пользователь! Огромная просьба, поблагодарите релизера, оцените раздачу и оставьте свои комментарий, если Вы скачали Несломленный через торрент бесплатно!!
    Комментировать посты могут только пользователи прошедшие не сложную регистрацию
    Показать сообщения:    


    Несломленный через торрент
    Скачать бесплатно Несломленный
    Несломленный скачать торрент
    Несломленный смотреть онлайн
    Cкачать фильм Несломленный бесплатно
    Несломленный скачать торрент в хорошем качестве
    Несломленный смотреть онлайн бесплатно в хорошем качестве
    Вы не можете начинать темы
    Вы не можете отвечать на сообщения
    Вы не можете редактировать свои сообщения
    Вы не можете удалять свои сообщения
    Вы не можете голосовать в опросах
    Вы не можете прикреплять файлы к сообщениям
    Вы можете скачивать файлы
    Несломленный [2014, драма, военный, биография, BDRip 720p от potroks] Дубляж Лицензия смотреть онлайн, скачать торрент picoco.icu