Ссылка на приватное зеркало нашего сайта всего за 1$. Внимание количество ограничено!!!

2 сезон

iTunes

1 сезон

1

iTunes

iTunes

iTunes

1 сезон

RePack

30

ИГРА 18+

pack

ВАЖНО

!!Акция!!

Alien_RageХит недели

RePack

MK11
pack

Забери бонус

RePack

jed

!!Акция!!

Alien_Rage

RePack

fifa19

RePack

Assassins Creed: Odyssey

RePack

NEED FOR SPEED™ PAYBACK

4 сезон

9 сезон

Бесстыжие 9 сезон

Все сериалы

все сериалы на PB.wtf

RePack

FAR CRY 5
  

Таверна Ямайка / Jamaica Inn (Альфред Хичкок) [1939, криминал, приключения, BDRip 720p by msltel] MVO, 3 x DVO pb.wtf

Таверна Ямайка через торрент pb.wtf

Размер: 4.22 GB | Добавлен: 5 лет 3 мес. назад | Торрент скачан:6 раз
Скачать  

20-07-2015 11:50 Таверна Ямайка Скачать торрент  

Название: Таверна Ямайка
Оригинальное название: Jamaica Inn
Год выпуска: 1939
Страна: Великобритания
Жанр: криминал, приключения
Продолжительность: 01:39:50
Перевод: профессиональный многоголосый, профессиональный двухголосый

Режиссёр: Альфред Хичкок

В ролях: Чарльз Лотон, Хорас Ходжес, Хэй Питри, Фредерик Пайпер, Херберт Ломас, Клер Грит, Уильям Дэвлин, Джейн Де Касалис, Мейбл Терри-Льюис, А. Бромли Девенпорт, Джордж Курзон, Бейзил Рэдфорд, Лесли Бэнкс, Мари Ней, Морин О’Хара, Эмлин Уилльямс, Вайли Уотсон, Морленд Грэм, Эдвин Гринвуд, Мервин Джонс, Роберт Эдейр

Описание: Мэри, осиротев, приезжает на побережье Корнуолла к своим дяде и тётке, содержащим таверну «Ямайка». Вскоре Мэри понимает, что таверна является базой для банды, грабящей суда, разбившиеся о скалистый берег. Жизни сироты угрожает опасность, однако среди головорезов есть человек, готовый помочь девушке... Фильм снят по книге Дафны Дю Морье.



Качество: BDRip 720p Сравнение с исходником
Формат: MKV
Видео кодек: H.264
Аудио кодек: AC3
Видео: MPEG-4 AVC, 4968 Кбит/с, 988x720, 23,976 кадра/с
Аудио 1: русский, AC3, 192 kbps, 2 ch, 48 kHz [профессиональный многоголосый, Позитив]
Аудио 2: русский, AC3, 192 kbps, 2 ch, 48 kHz [профессиональный двухголосый, DVD Classic,New Dream]
Аудио 3: русский, AC3, 192 kbps, 2 ch, 48 kHz [профессиональный двухголосый, Film Prestige]
Аудио 4: русский, AC3, 192 kbps, 2 ch, 48 kHz [профессиональный двухголосый, Светла]
Аудио 5: английский, AC3, 192 kbps, 2 ch, 48 kHz [оригинал]
Субтитры 1: русские
Субтитры 2: английские
Общее
Уникальный идентификатор : 253665681229370498643761419459645258577 (0xBED63BAEB08FBE4ABBC584FBDEA5BB51)
Полное имя : D:VideoТаверна Ямайка.1939.BDRip.720p.mkv
Формат : Matroska
Версия формата : Version 4 / Version 2
Размер файла : 4,22 Гбайт
Продолжительность : 1 ч. 39 м.
Общий поток : 6049 Кбит/сек
Название фильма : BDRip -- STarankov
Дата кодирования : UTC 2015-07-20 02:00:37
Программа кодирования : mkvmerge v8.2.0 ('World of Adventure') 64bit
Библиотека кодирования : libebml v1.3.1 + libmatroska v1.4.2
DURATION : 01:35:25.767000000
NUMBER_OF_FRAMES : 1456
NUMBER_OF_BYTES : 55064
_STATISTICS_WRITING_APP : mkvmerge v8.2.0 ('World of Adventure') 64bit
_STATISTICS_WRITING_DATE_UTC : 2015-07-20 02:00:37
_STATISTICS_TAGS : BPS DURATION NUMBER_OF_FRAMES NUMBER_OF_BYTES

Видео
Идентификатор : 1
Формат : AVC
Формат/Информация : Advanced Video Codec
Профиль формата : High@L4.1
Параметр CABAC формата : Да
Параметр ReFrames формата : 9 кадров
Идентификатор кодека : V_MPEG4/ISO/AVC
Продолжительность : 1 ч. 39 м.
Битрейт : 4968 Кбит/сек
Ширина : 988 пикселей
Высота : 720 пикселей
Соотношение сторон : 1,372
Режим частоты кадров : Постоянный
Частота кадров : 23,976 кадра/сек
Цветовое пространство : YUV
Субдискретизация насыщенности : 4:2:0
Битовая глубина : 8 бит
Тип развёртки : Прогрессивная
Бит/(Пиксели*Кадры) : 0.291
Размер потока : 3,46 Гбайт (82%)
Библиотека кодирования : x264 core 146 r2538 121396c
Настройки программы : cabac=1 / ref=9 / deblock=1:-3:-3 / analyse=0x3:0x113 / me=umh / subme=10 / psy=1 / psy_rd=1.00:0.15 / mixed_ref=1 / me_range=32 / chroma_me=1 / trellis=2 / 8x8dct=1 / cqm=0 / deadzone=21,11 / fast_pskip=1 / chroma_qp_offset=-3 / threads=6 / lookahead_threads=1 / sliced_threads=0 / nr=0 / decimate=1 / interlaced=0 / bluray_compat=0 / constrained_intra=0 / bframes=11 / b_pyramid=2 / b_adapt=2 / b_bias=0 / direct=1 / weightb=1 / open_gop=0 / weightp=2 / keyint=230 / keyint_min=23 / scenecut=40 / intra_refresh=0 / rc_lookahead=40 / rc=crf / mbtree=0 / crf=20.8 / qcomp=0.60 / qpmin=0 / qpmax=69 / qpstep=4 / vbv_maxrate=40000 / vbv_bufsize=50000 / crf_max=0.0 / nal_hrd=none / filler=0 / ip_ratio=1.40 / pb_ratio=1.30 / aq=1:1.00
Язык : English
Default : Да
Forced : Нет
DURATION : 01:39:50.360000000
NUMBER_OF_FRAMES : 143625
NUMBER_OF_BYTES : 3807957428
_STATISTICS_WRITING_APP : mkvmerge v8.2.0 ('World of Adventure') 64bit
_STATISTICS_WRITING_DATE_UTC : 2015-07-20 02:00:37
_STATISTICS_TAGS : BPS DURATION NUMBER_OF_FRAMES NUMBER_OF_BYTES

Аудио #1
Идентификатор : 2
Формат : AC-3
Формат/Информация : Audio Coding 3
Расширение режима : CM (complete main)
Параметр Endianness формата : Big
Идентификатор кодека : A_AC3
Продолжительность : 1 ч. 39 м.
Вид битрейта : Постоянный
Битрейт : 192 Кбит/сек
Каналы : 2 канала
Расположение каналов : Front: L R
Частота : 48,0 КГц
Метод сжатия : С потерями
Размер потока : 137 Мбайт (3%)
Заголовок : MVO (Позитив)
Язык : Russian
Default : Да
Forced : Нет

Аудио #2
Идентификатор : 3
Формат : AC-3
Формат/Информация : Audio Coding 3
Расширение режима : CM (complete main)
Параметр Endianness формата : Big
Идентификатор кодека : A_AC3
Продолжительность : 1 ч. 39 м.
Вид битрейта : Постоянный
Битрейт : 192 Кбит/сек
Каналы : 2 канала
Расположение каналов : Front: L R
Частота : 48,0 КГц
Метод сжатия : С потерями
Размер потока : 137 Мбайт (3%)
Заголовок : DVO (DVD Classic,New Dream)
Язык : Russian
Default : Нет
Forced : Нет

Аудио #3
Идентификатор : 4
Формат : AC-3
Формат/Информация : Audio Coding 3
Расширение режима : CM (complete main)
Параметр Endianness формата : Big
Идентификатор кодека : A_AC3
Продолжительность : 1 ч. 39 м.
Вид битрейта : Постоянный
Битрейт : 192 Кбит/сек
Каналы : 2 канала
Расположение каналов : Front: L R
Частота : 48,0 КГц
Метод сжатия : С потерями
Размер потока : 137 Мбайт (3%)
Заголовок : DVO (Film Prestige)
Язык : Russian
Default : Нет
Forced : Нет

Аудио #4
Идентификатор : 5
Формат : AC-3
Формат/Информация : Audio Coding 3
Расширение режима : CM (complete main)
Параметр Endianness формата : Big
Идентификатор кодека : A_AC3
Продолжительность : 1 ч. 39 м.
Вид битрейта : Постоянный
Битрейт : 192 Кбит/сек
Каналы : 2 канала
Расположение каналов : Front: L R
Частота : 48,0 КГц
Метод сжатия : С потерями
Размер потока : 137 Мбайт (3%)
Заголовок : DVO (Светла)
Язык : Russian
Default : Нет
Forced : Нет

Аудио #5
Идентификатор : 6
Формат : AC-3
Формат/Информация : Audio Coding 3
Расширение режима : CM (complete main)
Параметр Endianness формата : Big
Идентификатор кодека : A_AC3
Продолжительность : 1 ч. 39 м.
Вид битрейта : Постоянный
Битрейт : 192 Кбит/сек
Каналы : 2 канала
Расположение каналов : Front: L R
Частота : 48,0 КГц
Метод сжатия : С потерями
Размер потока : 137 Мбайт (3%)
Заголовок : Original
Язык : English
Default : Нет
Forced : Нет

Текст #1
Идентификатор : 7
Формат : UTF-8
Идентификатор кодека : S_TEXT/UTF8
Идентификатор кодека/Информация : UTF-8 Plain Text
Заголовок : русский
Язык : Russian
Default : Нет
Forced : Нет

Текст #2
Идентификатор : 8
Формат : UTF-8
Идентификатор кодека : S_TEXT/UTF8
Идентификатор кодека/Информация : UTF-8 Plain Text
Заголовок : английский
Default : Нет
Forced : Нет
pb.wtf



Скачать Таверна Ямайка через торрент http://i69.fastpic.ru/big/2015/0719/a1/7153c09059ed756cddb34e7a285ebda1.jpg Скачать фильм Таверна Ямайка через торрент бесплантно в хорошем качестве Описание: Мэри, осиротев, приезжает на побережье Корнуолла к своим дяде и тётке, содержащим таверну «Ямайка». Вскоре Мэри понимает, что ... 10 10 3
Торрент: Зарегистрирован [2015-07-20 11:50] · скачан: 6 раз
Статус: √ проверено
Размер: 4.22 GB
Как cкачать? Как скачать Таверна Ямайка через торрент | qTorrent

% Раздел Тема Автор DL S | L
Фильмы [HD 720p, 1080p] (Хороший звук DUB, MVO) [ 11.96 GB ] Таверна Ямайка / Jamaica Inn [1939 BDRip 1080p by msltel] MVO 3 x DVO msltel Скачать
1 | 0
Фильмы до 2000 г. [ 2.32 GB ] Таверна Ямайка / Jamaica Inn [1939 BDRip AVC by msltel] MVO 3 x DVO msltel Скачать
1 | 0

28-11-2019 20:33  

Отключить всю рекламу на сайте

    Дорогой пользователь! Огромная просьба, поблагодарите релизера, оцените раздачу и оставьте свои комментарий, если Вы скачали Таверна Ямайка через торрент бесплатно! Внесите свою лепту в развитие PiratBit!
    Комментировать посты могут только пользователи прошедшие не сложную регистрацию
    Показать сообщения:    

    Таверна Ямайка через торрент
    Скачать бесплатно Таверна Ямайка
    Таверна Ямайка скачать торрент
    Таверна Ямайка смотреть онлайн
    Cкачать фильм Таверна Ямайка бесплатно
    Таверна Ямайка скачать торрент в хорошем качестве
    Таверна Ямайка смотреть онлайн бесплатно в хорошем качестве


    Вы не можете начинать темы
    Вы не можете отвечать на сообщения
    Вы не можете редактировать свои сообщения
    Вы не можете удалять свои сообщения
    Вы не можете голосовать в опросах
    Вы не можете прикреплять файлы к сообщениям
    Вы можете скачивать файлы