Ссылка на приватное зеркало всего за 1$. Внимание количество ограничено!!!

OK

1+1

iTunes

мы

OK

1

WEB-DLRip

Джокер

Пифагор

Ведьмак / The Witcher сериал

iTunes

ПШазам

ОК

Оно 2

iTunes

30
pack

Вам бонус

ВАЖНО

!!Акция!!

Alien_RageХит недели

RePack

Resident Evil 21

ИГРА 18+

pack

RePack

jed

RePack

fifa19

RePack

Assassins Creed: Odyssey

RePack

NEED FOR SPEED™ PAYBACK

4 сезон

9 сезон

Бесстыжие 9 сезон

Все сериалы

все сериалы на PB.wtf

RePack

FAR CRY 5
  

Дивергент, глава 2: Инсургент / Insurgent (Роберт Швентке) [2015 г., фантастика, триллер, приключения, HDRip, Дубляж,"iTunes"] pb.wtf

Дивергент, глава 2: Инсургент через торрент pb.wtf

Размер: 2.19 GB | Добавлен: 4 года 5 мес. назад | Торрент скачан:713 раз
Скачать  

20-07-2015 18:03 Дивергент, глава 2: Инсургент Скачать торрент  

Дивергент глава 2: Инсургент / Insurgent
Год выпуска: 2015
Страна: США / Red Wagon Entertainment, Mandeville Films, NeoReel
Жанр: фантастика, триллер, приключения
Продолжительность: 01:59:00
Перевод: Дубляж (iTunes)

Режиссер: Роберт Швентке

IMDB 6.90 (46 992)


В ролях: Шейлин Вудли, Тео Джеймс, Кейт Уинслет, Джай Кортни, Энсел Элгорт, Майлз Теллер, Зои Кравиц, Мекхай Файфер, Наоми Уоттс, Октавия Спенсер

Описание: В новой главе антиутопии об обществе, где все расставлено по полочкам, а любая индивидуальность подлежит искоренению, Трис должна найти способ борьбы со страшной системой, уничтожающей ее близких. Кто из них на очереди? Она узнает все больше страшных подробностей, стоящих за кажущимся порядком, и уже не может не видеть, что в ее мире пора что-то менять. Но главное в этой борьбе — справиться с расколом, который враг порождает в ее собственной душе.

Качество: HDRip
Формат: AVI
Видео кодек: XviD
Аудио кодек: AC3
Видео: 720x304 (2.37:1), 23.976 fps, XviD build 50 ~2243 kbps avg, 0.43 bit/pixel
Аудио: 48 kHz, AC3 Dolby Digital, 3/2 (L,C,R,l,r) + LFE ch, ~384 kbps

Общее
Полное имя : F:\кино\Дивергент, глава 2. Инсургент.2015.HDRip.avi
Формат : AVI
Формат/Информация : Audio Video Interleave
Профиль формата : OpenDML
Размер файла : 2,19 Гбайт
Продолжительность : 1 ч. 59 м.
Общий поток : 2634 Кбит/сек
Программа кодирования : VirtualDubMod 1.5.10.3 | www.virtualdub-fr.org || (build 2550/release)
Библиотека кодирования : VirtualDubMod build 2550/release

Видео
Идентификатор : 0
Формат : MPEG-4 Visual
Профиль формата : Advanced Simple@L5
Параметр BVOP формата : 2
Параметр QPel формата : Нет
Параметр GMC формата : Без точки перехода
Параметр матрицы формата : Default (H.263)
Идентификатор кодека : XVID
Идентификатор кодека/Подсказка : XviD
Продолжительность : 1 ч. 59 м.
Битрейт : 2238 Кбит/сек
Ширина : 720 пикселей
Высота : 304 пикселя
Соотношение сторон : 2,35:1
Частота кадров : 23,976 кадра/сек
Цветовое пространство : YUV
Субдискретизация насыщенности : 4:2:0
Битовая глубина : 8 бит
Тип развёртки : Прогрессивная
Метод сжатия : С потерями
Бит/(Пиксели*Кадры) : 0.427
Размер потока : 1,86 Гбайт (85%)
Библиотека кодирования : XviD 1.2.1 (UTC 2008-12-04)

Аудио
Идентификатор : 1
Формат : AC-3
Формат/Информация : Audio Coding 3
Расширение режима : CM (complete main)
Параметр Endianness формата : Big
Идентификатор кодека : 2000
Продолжительность : 1 ч. 58 м.
Вид битрейта : Постоянный
Битрейт : 384 Кбит/сек
Каналы : 6 каналов
Расположение каналов : Front: L C R, Side: L R, LFE
Частота : 48,0 КГц
Метод сжатия : С потерями
Размер потока : 327 Мбайт (15%)
Выравнивание : Разделение по промежуткам
Продолжительность промежутка : 42 мс. (1,00 видеокадр)
Время предзагрузки промежутка : 500 мс.

pb.wtf



Скачать Дивергент, глава 2: Инсургент через торрент http://pic1.kartinco.top/images/10/17bf2.jpg Скачать фильм Дивергент, глава 2: Инсургент через торрент бесплантно в хорошем качестве Описание: В новой главе антиутопии об обществе, где все расставлено по полочкам, а любая индивидуальность подлежит искоренению, Трис должна ... 9.5 10 23
Торрент: Зарегистрирован [2015-08-05 17:56] · скачан: 713 раз
Статус: √ проверено
Размер: 2.19 GB
Как cкачать? Как скачать Дивергент, глава 2: Инсургент через торрент | qTorrent

% Раздел Тема Автор DL S | L
Фильмы (HD 720p, 1080p) (48-60 fps) [ 5.36 GB ] Дивергент глава 2: Инсургент / Insurgent [2015 BDRip 720p ] 60fps от mimok mimok Скачать
1 | 0
Ultra HD (UHD: 2K, 4K, 8K) — видео сверхвысокой чёткости [ 54.74 GB ] Дивергент глава 2: Инсургент / Insurgent [2015 UHD BDRemux 2160p] DUB [] bober100 Скачать
1 | 0
3D Фильмы [ 40.9 GB ] Дивергент глава 2: Инсургент / Insurgent [2015 Blu-Ray 1080p] [3D/2D] [] killermax2013 Скачать
1 | 0
Фильмы [HD 720p, 1080p] (Хороший звук DUB, MVO) [ 12.85 GB ] Дивергент глава 2: Инсургент / Insurgent [2015 BDRip 1080p] DUB Ворон Скачать
1 | 0
3D Фильмы [ 12.45 GB ] Дивергент глава 2: Инсургент в 3Д / Insurgent 3D [2015 BDrip-AVC 1080p] OverUnder / Вертикальная стереопара serega768 Скачать
1 | 0
Фильмы 2015 [DVDrip, WEB-DLRip, HDrip] [ 745 MB ] Дивергент глава 2: Инсургент / Insurgent [2015 BDRip-AVC от sokol_ok] DUB sokol_ok Скачать
2 | 0
Фильмы 2015 [DVDrip, WEB-DLRip, HDrip] [ 2.18 GB ] Дивергент глава 2: Инсургент / Insurgent [2015 BDRip-AVC от sokol_ok] DUB sokol_ok Скачать
2 | 0


Последний раз редактировалось: coc900 (2015-08-05 17:56), всего редактировалось 1 раз

28-11-2019 20:33  

Отключить всю рекламу на сайте

20-07-2015 20:34 Дивергент, глава 2: Инсургент Скачать торрент  

Друзья! Не тратьте время на просмотр этого абсолютного шлака, второсортного ну не знаю бое...мило...фанта... нет определения шлако-халтуры.pb.wtf



24-07-2015 18:49 Дивергент, глава 2: Инсургент Скачать торрент  

Ну почему сразу шлака, довольно обычный фильм для просмотра наночь)pb.wtf



05-08-2015 17:58 Дивергент, глава 2: Инсургент Скачать торрент  

Релиз обновлен!Просьба перекачать торрент файл! pb.wtf



07-08-2015 11:26 Дивергент, глава 2: Инсургент Скачать торрент  

Те кто несет шлакокритику , советуйте что можно смотреть на ваше мнение...просто оч интересно что для вас не шлак...pb.wtf



23-08-2015 01:11 Дивергент, глава 2: Инсургент Скачать торрент  

Хм. Я посмотрю, хотя бы потому что я смотрел первую часть (она мне в принципе понравилась). Будем надеяться, что вторую часть они не слили.pb.wtf



    Дорогой пользователь! Огромная просьба, поблагодарите релизера, оцените раздачу и оставьте свои комментарий, если Вы скачали Дивергент, глава 2: Инсургент через торрент бесплатно! Внесите свою лепту в развитие PiratBit!
    Комментировать посты могут только пользователи прошедшие не сложную регистрацию
    Показать сообщения:    

    Дивергент, глава 2: Инсургент через торрент
    Скачать бесплатно Дивергент, глава 2: Инсургент
    Дивергент, глава 2: Инсургент скачать торрент
    Дивергент, глава 2: Инсургент смотреть онлайн
    Cкачать фильм Дивергент, глава 2: Инсургент бесплатно
    Дивергент, глава 2: Инсургент скачать торрент в хорошем качестве
    Дивергент, глава 2: Инсургент смотреть онлайн бесплатно в хорошем качестве


    Вы не можете начинать темы
    Вы не можете отвечать на сообщения
    Вы не можете редактировать свои сообщения
    Вы не можете удалять свои сообщения
    Вы не можете голосовать в опросах
    Вы не можете прикреплять файлы к сообщениям
    Вы можете скачивать файлы